<?xml version="1.0" standalone="no"?>
<!DOCTYPE svg PUBLIC "-//W3C//DTD SVG 1.1//EN" "http://www.w3.org/Graphics/SVG/1.1/DTD/svg11.dtd" >
<svg xmlns="http://www.w3.org/2000/svg">
<metadata>Generated by IcoMoon</metadata>
<defs>
<font id="adminlibrary" horiz-adv-x="1024">
<font-face units-per-em="1024" ascent="960" descent="-64" />
<missing-glyph horiz-adv-x="1024" />
<glyph unicode="&#x20;" horiz-adv-x="512" d="" />
<glyph unicode="&#x8907;" glyph-name="cart" d="M728.131 159.484q34.099 0 59.174-26.075t25.072-60.177-25.072-59.174-59.174-25.072-60.177 25.072-26.075 59.174 26.075 60.177 60.177 26.075zM42.123 843.486h140.411l40.117-84.246h633.855q18.054 0 30.087-13.039t12.036-31.090q0-2.006-6.018-20.060l-152.447-276.81q-24.070-44.129-74.216-44.129h-318.933l-38.111-70.205-2.006-6.018q0-10.030 10.030-10.030h495.45v-86.252h-513.502q-34.099 0-59.174 26.075t-25.072 60.177q0 20.060 10.030 40.117l58.171 106.312-154.453 324.951h-86.252v84.246zM298.875 159.484q34.099 0 60.177-26.075t26.075-60.177-26.075-59.174-60.177-25.072-59.174 25.072-25.072 59.174 25.072 60.177 59.174 26.075z" />
<glyph unicode="&#xe520;" glyph-name="person" d="M513.502 320.814q108.318 0 225.66-47.138t117.343-123.36v-86.252h-686.008v86.252q0 76.222 117.343 123.36t225.66 47.138zM513.502 407.066q-70.205 0-120.352 50.147t-50.147 120.352 50.147 121.355 120.352 51.15 120.352-51.15 50.147-121.355-50.147-120.352-120.352-50.147z" />
<glyph unicode="&#xe700;" glyph-name="tools" d="M889.056 706.048c30.688-74.016 16.064-162.368-44.128-222.56-66.272-66.272-166.432-76.64-244.288-32.704l-56.288-61.472 40.16-40.32 24 24c12.256 12.288 32.16 12.288 44.416 0l194.624-196.608c12.288-12.256 12.288-32.16 0-44.416l-88.832-88.832c-12.256-12.288-32.16-12.288-44.416 0l-194.624 196.608c-12.288 12.256-12.288 32.16 0 44.416l21.92 21.92-38.272 38.368-269.152-294.048c-24.544-24.544-64.32-24.544-88.832 0l-22.208 22.208c-24.544 24.544-24.544 64.32 0 88.832l306.624 256.8-203.648 204.192-64.32 0.032-74.432 119.68 59.904 60 122.4-74.912 0.8-62.976 206.016-206.816 59.936 50.176c-58.592 79.872-52.48 192.384 19.712 264.576 59.904 59.904 147.776 74.784 221.6 44.672l-131.968-130.144 111.072-111.072 132.224 130.4zM196.8 130.112c-12.256 12.256-32.128 12.256-44.416 0-12.288-12.288-12.288-32.16 0-44.448 12.288-12.256 32.16-12.256 44.416 0 12.288 12.32 12.288 32.192 0 44.448z" />
<glyph unicode="&#xe702;" glyph-name="supervised-user-circle" d="M512 84.667q106 0 193 61t125 157q-60 48-164 48-58 0-123-25t-65-65v-174q12-2 34-2zM410 260.667q0 70 80 114-50 10-80 10-54 0-122-19t-98-53q28-76 86-132t134-80v160zM410 650.667q-42 0-72-30t-30-72 30-71 72-29 71 29 29 71-29 72-71 30zM666 582.667q-34 0-58-24t-24-58 24-58 58-24 58 24 24 58-24 58-58 24zM512 852.667q176 0 301-125t125-301-125-301-301-125q-178 0-303 125t-125 301 125 301 303 125z" />
<glyph unicode="&#xe704;" glyph-name="vpn-key" d="M298 340.667q34 0 60 26t26 60-26 60-60 26-59-26-25-60 25-60 59-26zM540 512.667h442v-172h-86v-170h-170v170h-186q-26-70-97-120t-145-50q-106 0-181 75t-75 181 75 181 181 75q74 0 145-50t97-120z" />
<glyph unicode="&#xe800;" glyph-name="user-circle" d="M872.841 174.576c-14.902 107.171-58.457 202.306-155.885 215.487-50.433-55.019-123.217-89.978-203.452-89.978s-153.018 34.959-203.452 89.978c-97.428-13.182-140.984-108.318-155.885-215.487 79.663-112.329 210.904-186.26 359.338-186.26s279.676 73.93 359.338 186.26zM733.576 575.177c0 121.499-98.574 220.073-220.073 220.073s-220.073-98.574-220.073-220.073 98.574-220.073 220.073-220.073 220.073 98.574 220.073 220.073zM1027.006 428.462c0-282.541-229.242-513.502-513.502-513.502-283.687 0-513.502 230.389-513.502 513.502 0 283.687 229.815 513.502 513.502 513.502s513.502-229.815 513.502-513.502z" />
<glyph unicode="&#xe802;" glyph-name="error" d="M555.627 374.113v256.751h-84.246v-256.751h84.246zM555.627 201.608v86.252h-84.246v-86.252h84.246zM513.502 843.486q176.516 0 301.884-125.366t125.366-301.884-125.366-301.884-301.884-125.366-301.884 125.366-125.366 301.884 125.366 301.884 301.884 125.366z" />
<glyph unicode="&#xe803;" glyph-name="security" d="M513.502 887.615l385.127-172.504v-256.751q0-178.522-110.324-325.954t-274.804-187.549q-164.481 40.117-274.804 187.549t-110.324 325.954v256.751zM513.502 416.236v-383.121q118.346 38.111 200.588 143.42t98.288 239.702h-298.875zM513.502 416.236v377.104l-298.875-132.387v-244.717h298.875z" />
<glyph unicode="&#xe804;" glyph-name="storefront" d="M214.628 117.361h599.756v256.751h-10.030q-60.177 0-96.282 40.117-40.117-40.117-96.282-40.117-54.159 0-98.288 40.117-40.117-40.117-94.276-40.117-60.177 0-100.294 40.117-36.105-40.117-94.276-40.117h-10.030v-256.751zM172.504 528.565q-6.018-28.081 12.036-50.147 14.042-20.060 40.117-20.060 42.123 0 50.147 50.147l26.075 206.605h-84.246zM363.063 516.529q0-22.066 15.045-40.117t37.108-18.054q24.070 0 40.117 17.051t16.048 39.114v200.588h-84.246l-24.070-192.564v-6.018zM555.627 715.111v-200.588q0-22.066 16.048-39.114t36.105-17.051q26.075 0 43.126 19.057t13.039 45.132l-24.070 192.564h-84.246zM808.366 717.117l-82.24-2.006 26.075-206.605q2.006-20.060 16.048-35.102t34.099-15.045q24.070 0 40.117 20.060 18.054 22.066 12.036 50.147zM936.742 548.624q16.048-70.205-26.075-122.357l-12.036-12.036v-296.869q0-34.099-26.075-60.177t-60.177-26.075h-597.75q-34.099 0-60.177 26.075t-26.075 60.177v296.869l-12.036 12.036q-42.123 52.153-26.075 122.357l44.129 188.552q6.018 28.081 30.087 46.135t52.153 18.054h593.738q28.081 0 51.15-18.054t31.090-46.135z" />
<glyph unicode="&#xe805;" glyph-name="editor-list-ul" d="M916.090 428.462c0-23.621-19.513-43.134-43.134-43.134h-487.827c-23.621 0-43.134 19.513-43.134 43.134s19.513 43.134 43.134 43.134h487.827c23.621 0 43.134-19.513 43.134-43.134zM872.955 214.844h-487.827c-23.621 0-43.134-19.513-43.134-43.134s19.513-43.134 43.134-43.134h487.827c23.621 0 43.134 19.513 43.134 43.134s-19.513 43.134-43.134 43.134zM385.127 642.080h487.827c23.621 0 43.134 19.513 43.134 43.134s-19.513 43.134-43.134 43.134h-487.827c-23.621 0-43.134-19.513-43.134-43.134s19.513-43.134 43.134-43.134zM193.077 749.915c-35.945 0-64.701-28.756-64.701-64.701s28.756-63.674 64.701-63.674c34.918 0 63.674 27.729 63.674 63.674s-28.756 64.701-63.674 64.701zM193.077 236.411c-35.945 0-64.701-28.756-64.701-64.701s28.756-63.674 64.701-63.674c34.918 0 63.674 27.729 63.674 63.674s-28.756 64.701-63.674 64.701zM193.077 495.217c-35.945 0-64.701-28.756-64.701-63.674 0-35.945 28.756-64.701 64.701-64.701 34.918 0 63.674 28.756 63.674 64.701 0 34.918-28.756 63.674-63.674 63.674z" />
<glyph unicode="&#xe806;" glyph-name="search" d="M407.192 329.984q80.234 0 136.399 56.165t56.165 136.399-56.165 136.399-136.399 56.165-136.399-56.165-56.165-136.399 56.165-136.399 136.399-56.165zM663.943 329.984l212.622-212.622-64.189-64.189-212.622 212.622v34.099l-12.036 12.036q-76.222-66.195-180.528-66.195-116.341 0-197.579 80.234t-81.237 196.576 81.237 197.579 197.579 81.237 196.576-81.237 80.234-197.579q0-42.123-20.060-95.279t-46.135-85.249l12.036-12.036h34.099z" />
<glyph unicode="&#xe807;" glyph-name="info" d="M555.627 544.612v86.252h-84.246v-86.252h84.246zM555.627 201.608v256.751h-84.246v-256.751h84.246zM513.502 843.486q176.516 0 301.884-125.366t125.366-301.884-125.366-301.884-301.884-125.366-301.884 125.366-125.366 301.884 125.366 301.884 301.884 125.366z" />
<glyph unicode="&#xe809;" glyph-name="check" d="M385.127 237.714l453.327 453.327 60.177-60.177-513.502-513.502-238.699 238.699 60.177 60.177z" />
<glyph unicode="&#xe80a;" glyph-name="smile-o" horiz-adv-x="881" d="M649.902 325.876c-28.655-92.27-112.901-154.165-209.757-154.165s-181.102 61.894-209.757 154.165c-6.304 19.486 4.583 39.546 24.070 45.849 18.911 6.304 39.546-4.583 45.849-24.070 18.911-61.323 75.651-102.586 139.838-102.586s120.925 41.263 139.838 102.586c6.304 19.486 26.935 30.376 46.421 24.070 18.911-6.304 29.801-26.364 23.498-45.849zM366.787 575.177c0-40.691-32.667-73.358-73.358-73.358s-73.358 32.667-73.358 73.358 32.667 73.358 73.358 73.358 73.358-32.667 73.358-73.358zM660.218 575.177c0-40.691-32.667-73.358-73.358-73.358s-73.358 32.667-73.358 73.358 32.667 73.358 73.358 73.358 73.358-32.667 73.358-73.358zM806.932 428.462c0 202.306-164.481 366.787-366.787 366.787s-366.787-164.481-366.787-366.787 164.481-366.787 366.787-366.787 366.787 164.481 366.787 366.787zM880.291 428.462c0-242.997-197.148-440.145-440.145-440.145s-440.145 197.148-440.145 440.145 197.148 440.145 440.145 440.145 440.145-197.148 440.145-440.145z" />
<glyph unicode="&#xe810;" glyph-name="close" d="M812.378 654.934l-238.699-238.699 238.699-238.699-60.177-60.177-238.699 238.699-238.699-238.699-60.177 60.177 238.699 238.699-238.699 238.699 60.177 60.177 238.699-238.699 238.699 238.699z" />
<glyph unicode="&#xe820;" glyph-name="captcha" d="M106.808 321.654c-11.297 0-21.567-9.243-21.567-21.567s-9.243-21.567-20.54-21.567-21.567 10.27-21.567 21.567v85.241c0 12.324 9.243 21.567 21.567 21.567s20.54-9.243 20.54-21.567 10.27-20.54 21.567-20.54 21.567 9.243 21.567 20.54c0 35.945-28.756 64.701-63.674 64.701s-64.701-28.756-64.701-64.701v-85.241c0-34.918 28.756-63.674 64.701-63.674s63.674 28.756 63.674 63.674c0 12.324-9.243 21.567-21.567 21.567zM535.071 428.462c11.297 0 21.567-9.243 21.567-21.567s9.243-21.567 21.567-21.567 20.54 10.27 20.54 21.567c0 35.945-28.756 64.701-63.674 64.701s-64.701-28.756-64.701-64.701v-85.241c0-35.945 28.756-64.701 64.701-64.701s63.674 28.756 63.674 64.701c0 11.297-9.243 21.567-20.54 21.567s-21.567-10.27-21.567-21.567-10.27-21.567-21.567-21.567-21.567 9.243-21.567 21.567v85.241c0 12.324 9.243 21.567 21.567 21.567zM1025.979 265.167l-64.701 170.482c-6.162 17.459-33.891 17.459-40.053 0l-63.674-170.482c-4.108-11.297 1.027-23.621 12.324-27.729s23.621 1.027 27.729 12.324l10.27 28.756h66.755l11.297-28.756c3.081-8.216 11.297-13.351 19.513-13.351 3.081 0 5.135 0 8.216 1.027 10.27 4.108 16.432 16.432 12.324 27.729zM924.306 321.654l17.459 46.215 17.459-46.215h-34.918zM234.157 350.41c-6.162 16.432-33.891 16.432-40.053 0l-64.701-171.509c-4.108-10.27 2.054-22.594 13.351-26.702 10.27-4.108 22.594 1.027 26.702 12.324l11.297 28.756h66.755l10.27-28.756c4.108-9.243 11.297-14.378 20.54-14.378 2.054 0 5.135 1.027 7.189 2.054 11.297 4.108 16.432 16.432 12.324 26.702l-63.674 171.509zM197.185 236.411l16.432 45.188 17.459-45.188h-33.891zM363.56 535.27h-42.107c-12.324 0-21.567-9.243-21.567-21.567v-170.482c0-12.324 9.243-21.567 21.567-21.567s20.54 9.243 20.54 21.567v63.674h21.567c35.945 0 64.701 28.756 64.701 64.701s-28.756 63.674-64.701 63.674zM363.56 450.029h-21.567v43.134h21.567c12.324 0 21.567-10.27 21.567-21.567s-9.243-21.567-21.567-21.567zM791.822 364.788c-12.324 0-21.567-10.27-21.567-21.567v-64.701h-85.241v64.701c0 11.297-10.27 21.567-21.567 21.567s-21.567-10.27-21.567-21.567v-171.509c0-11.297 9.243-21.567 21.567-21.567s21.567 10.27 21.567 21.567v64.701h85.241v-64.701c0-11.297 9.243-21.567 21.567-21.567s21.567 10.27 21.567 21.567v171.509c0 11.297-10.27 21.567-21.567 21.567zM470.368 513.703c0-11.297 10.27-20.54 21.567-20.54s21.567 9.243 21.567 20.54v149.942h43.134c11.297 0 21.567 10.27 21.567 21.567s-10.27 21.567-21.567 21.567h-128.375c-12.324 0-21.567-9.243-21.567-21.567s9.243-21.567 21.567-21.567h42.107v-149.942z" />
<glyph unicode="&#xe822;" glyph-name="checkbox" d="M235.184 214.844h-170.482c-35.945 0-64.701-28.756-64.701-64.701v-171.509c0-34.918 28.756-63.674 64.701-63.674h170.482c35.945 0 64.701 28.756 64.701 63.674v171.509c0 35.945-28.756 64.701-64.701 64.701zM256.751-21.367c0-11.297-9.243-20.54-21.567-20.54h-170.482c-12.324 0-21.567 9.243-21.567 20.54v171.509c0 12.324 9.243 21.567 21.567 21.567h170.482c12.324 0 21.567-9.243 21.567-21.567v-171.509zM406.694 728.348h598.745c12.324 0 21.567 9.243 21.567 21.567s-9.243 20.54-21.567 20.54h-598.745c-12.324 0-21.567-9.243-21.567-20.54s9.243-21.567 21.567-21.567zM1005.439 428.462h-598.745c-12.324 0-21.567-9.243-21.567-21.567s9.243-21.567 21.567-21.567h598.745c12.324 0 21.567 10.27 21.567 21.567s-9.243 21.567-21.567 21.567zM1005.439 86.469h-598.745c-12.324 0-21.567-10.27-21.567-21.567s9.243-21.567 21.567-21.567h598.745c12.324 0 21.567 9.243 21.567 21.567s-9.243 21.567-21.567 21.567zM302.967 932.721l-30.81-45.188c-10.27 7.189-23.621 11.297-36.972 11.297h-170.482c-35.945 0-64.701-28.756-64.701-63.674v-171.509c0-34.918 28.756-63.674 64.701-63.674h170.482c35.945 0 64.701 28.756 64.701 63.674v171.509c0 5.135-1.027 10.27-2.054 14.378l41.080 58.539c6.162 10.27 4.108 23.621-6.162 29.783-9.243 7.189-22.594 5.135-29.783-5.135zM256.751 663.647c0-11.297-9.243-21.567-21.567-21.567h-170.482c-12.324 0-21.567 10.27-21.567 21.567v171.509c0 11.297 9.243 21.567 21.567 21.567h170.482c5.135 0 8.216-2.054 12.324-4.108l-79.079-112.97-46.215 46.215c-8.216 8.216-21.567 8.216-30.81 0s-8.216-21.567 0-29.783l64.701-64.701c4.108-4.108 9.243-6.162 15.405-6.162 0 0 1.027 0 2.054 0 6.162 1.027 11.297 4.108 15.405 9.243l67.782 97.565v-128.375zM302.967 590.729l-30.81-45.188c-10.27 7.189-23.621 11.297-36.972 11.297h-170.482c-35.945 0-64.701-28.756-64.701-63.674v-171.509c0-35.945 28.756-64.701 64.701-64.701h170.482c35.945 0 64.701 28.756 64.701 64.701v171.509c0 5.135-1.027 9.243-2.054 14.378l41.080 58.539c6.162 9.243 4.108 22.594-6.162 29.783-9.243 7.189-22.594 4.108-29.783-5.135zM256.751 321.654c0-12.324-9.243-21.567-21.567-21.567h-170.482c-12.324 0-21.567 9.243-21.567 21.567v171.509c0 11.297 9.243 20.54 21.567 20.54h170.482c5.135 0 8.216-1.027 12.324-3.081l-79.079-112.97-46.215 46.215c-8.216 8.216-21.567 8.216-30.81 0s-8.216-22.594 0-30.81l64.701-63.674c4.108-4.108 9.243-6.162 15.405-6.162 0 0 1.027 0 2.054 0 6.162 0 11.297 4.108 15.405 9.243l67.782 96.538v-127.348z" />
<glyph unicode="&#xe828;" glyph-name="divider" d="M43.134 535.27h940.738c12.324 0 21.567 10.27 21.567 21.567s-9.243 21.567-21.567 21.567h-940.738c-12.324 0-21.567-9.243-21.567-21.567s9.243-21.567 21.567-21.567zM385.127 706.781h256.751c8.216 0 15.405 5.135 19.513 12.324s2.054 15.405-2.054 21.567l-128.375 171.509c-8.216 11.297-26.702 11.297-34.918 0l-128.375-171.509c-4.108-6.162-5.135-14.378-2.054-21.567 4.108-7.189 11.297-12.324 19.513-12.324zM513.502 863.912l85.241-113.997h-170.482l85.241 113.997zM641.879 150.143h-256.751c-8.216 0-15.405-4.108-19.513-11.297-3.081-7.189-2.054-16.432 2.054-22.594l128.375-171.509c4.108-5.135 11.297-8.216 17.459-8.216s13.351 3.081 17.459 8.216l128.375 171.509c4.108 6.162 5.135 15.405 2.054 22.594-4.108 7.189-11.297 11.297-19.513 11.297zM513.502-5.962l-85.241 113.997h170.482l-85.241-113.997zM983.872 321.654h-940.738c-12.324 0-21.567-9.243-21.567-21.567s9.243-21.567 21.567-21.567h940.738c12.324 0 21.567 10.27 21.567 21.567s-9.243 21.567-21.567 21.567z" />
<glyph unicode="&#xe84e;" glyph-name="radio" d="M149.942 920.397c-83.187 0-149.942-66.755-149.942-149.942s66.755-148.915 149.942-148.915 149.942 66.755 149.942 148.915-67.782 149.942-149.942 149.942zM149.942 663.647c-59.566 0-106.808 48.269-106.808 106.808s47.242 107.835 106.808 107.835 106.808-48.269 106.808-107.835-48.269-106.808-106.808-106.808zM149.942 578.405c-83.187 0-149.942-67.782-149.942-149.942s66.755-149.942 149.942-149.942 149.942 67.782 149.942 149.942-67.782 149.942-149.942 149.942zM149.942 321.654c-59.566 0-106.808 48.269-106.808 106.808s47.242 106.808 106.808 106.808 106.808-48.269 106.808-106.808-48.269-106.808-106.808-106.808zM149.942 236.411c-83.187 0-149.942-67.782-149.942-149.942s66.755-149.942 149.942-149.942 149.942 66.755 149.942 149.942-67.782 149.942-149.942 149.942zM149.942-21.367c-59.566 0-106.808 48.269-106.808 107.835s47.242 106.808 106.808 106.808 106.808-48.269 106.808-106.808-48.269-107.835-106.808-107.835zM406.694 749.915h598.745c12.324 0 21.567 9.243 21.567 20.54s-9.243 21.567-21.567 21.567h-598.745c-12.324 0-21.567-9.243-21.567-21.567s9.243-20.54 21.567-20.54zM1005.439 450.029h-598.745c-12.324 0-21.567-9.243-21.567-21.567s9.243-21.567 21.567-21.567h598.745c12.324 0 21.567 10.27 21.567 21.567s-9.243 21.567-21.567 21.567zM1005.439 108.036h-598.745c-12.324 0-21.567-10.27-21.567-21.567s9.243-21.567 21.567-21.567h598.745c12.324 0 21.567 9.243 21.567 21.567s-9.243 21.567-21.567 21.567zM149.942 493.163c-35.945 0-64.701-28.756-64.701-64.701s28.756-63.674 64.701-63.674 63.674 28.756 63.674 63.674-28.756 64.701-63.674 64.701zM149.942 406.895c-12.324 0-21.567 10.27-21.567 21.567s9.243 21.567 21.567 21.567 21.567-9.243 21.567-21.567-10.27-21.567-21.567-21.567z" />
<glyph unicode="&#xe869;" glyph-name="toggle" d="M235.184 920.397h-170.482c-35.945 0-64.701-28.756-64.701-63.674v-171.509c0-34.918 28.756-63.674 64.701-63.674h170.482c35.945 0 64.701 28.756 64.701 63.674v171.509c0 34.918-28.756 63.674-64.701 63.674zM256.751 685.214c0-11.297-9.243-21.567-21.567-21.567h-170.482c-12.324 0-21.567 10.27-21.567 21.567v171.509c0 11.297 9.243 21.567 21.567 21.567h170.482c12.324 0 21.567-10.27 21.567-21.567v-171.509zM193.077 792.022h-21.567v21.567c0 12.324-10.27 21.567-21.567 21.567s-21.567-9.243-21.567-21.567v-21.567h-21.567c-11.297 0-21.567-9.243-21.567-21.567s10.27-20.54 21.567-20.54h21.567v-21.567c0-12.324 9.243-21.567 21.567-21.567s21.567 9.243 21.567 21.567v21.567h21.567c11.297 0 20.54 9.243 20.54 20.54s-9.243 21.567-20.54 21.567zM235.184 578.405h-170.482c-35.945 0-64.701-28.756-64.701-64.701v-170.482c0-35.945 28.756-64.701 64.701-64.701h170.482c35.945 0 64.701 28.756 64.701 64.701v170.482c0 35.945-28.756 64.701-64.701 64.701zM256.751 343.221c0-12.324-9.243-21.567-21.567-21.567h-170.482c-12.324 0-21.567 9.243-21.567 21.567v170.482c0 12.324 9.243 21.567 21.567 21.567h170.482c12.324 0 21.567-9.243 21.567-21.567v-170.482zM193.077 450.029h-21.567v21.567c0 11.297-10.27 21.567-21.567 21.567s-21.567-10.27-21.567-21.567v-21.567h-21.567c-11.297 0-21.567-9.243-21.567-21.567s10.27-21.567 21.567-21.567h21.567v-21.567c0-11.297 9.243-20.54 21.567-20.54s21.567 9.243 21.567 20.54v21.567h21.567c11.297 0 20.54 10.27 20.54 21.567s-9.243 21.567-20.54 21.567zM235.184 236.411h-170.482c-35.945 0-64.701-28.756-64.701-64.701v-171.509c0-34.918 28.756-63.674 64.701-63.674h170.482c35.945 0 64.701 28.756 64.701 63.674v171.509c0 35.945-28.756 64.701-64.701 64.701zM256.751 0.2c0-11.297-9.243-21.567-21.567-21.567h-170.482c-12.324 0-21.567 10.27-21.567 21.567v171.509c0 12.324 9.243 21.567 21.567 21.567h170.482c12.324 0 21.567-9.243 21.567-21.567v-171.509zM193.077 108.036h-21.567v20.54c0 12.324-10.27 21.567-21.567 21.567s-21.567-9.243-21.567-21.567v-20.54h-21.567c-11.297 0-21.567-10.27-21.567-21.567s10.27-21.567 21.567-21.567h21.567v-21.567c0-12.324 9.243-21.567 21.567-21.567s21.567 9.243 21.567 21.567v21.567h21.567c11.297 0 20.54 9.243 20.54 21.567s-9.243 21.567-20.54 21.567zM406.694 749.915h598.745c12.324 0 21.567 9.243 21.567 20.54s-9.243 21.567-21.567 21.567h-598.745c-12.324 0-21.567-9.243-21.567-21.567s9.243-20.54 21.567-20.54zM1005.439 450.029h-598.745c-12.324 0-21.567-9.243-21.567-21.567s9.243-21.567 21.567-21.567h598.745c12.324 0 21.567 10.27 21.567 21.567s-9.243 21.567-21.567 21.567zM1005.439 108.036h-598.745c-12.324 0-21.567-10.27-21.567-21.567s9.243-21.567 21.567-21.567h598.745c12.324 0 21.567 9.243 21.567 21.567s-9.243 21.567-21.567 21.567z" />
<glyph unicode="&#xe86d;" glyph-name="text" d="M1005.439 728.348h-983.872c-12.324 0-21.567 9.243-21.567 21.567s9.243 20.54 21.567 20.54h983.872c12.324 0 21.567-9.243 21.567-20.54s-9.243-21.567-21.567-21.567zM706.58 599.972h-685.013c-12.324 0-21.567 9.243-21.567 21.567s9.243 20.54 21.567 20.54h685.013c11.297 0 20.54-9.243 20.54-20.54s-9.243-21.567-20.54-21.567zM1005.439 471.596h-983.872c-12.324 0-21.567 9.243-21.567 21.567s9.243 20.54 21.567 20.54h983.872c12.324 0 21.567-9.243 21.567-20.54s-9.243-21.567-21.567-21.567zM706.58 343.221h-685.013c-12.324 0-21.567 9.243-21.567 21.567s9.243 20.54 21.567 20.54h685.013c11.297 0 20.54-9.243 20.54-20.54s-9.243-21.567-20.54-21.567zM1005.439 214.844h-983.872c-12.324 0-21.567 9.243-21.567 21.567s9.243 20.54 21.567 20.54h983.872c12.324 0 21.567-9.243 21.567-20.54s-9.243-21.567-21.567-21.567zM706.58 86.469h-685.013c-12.324 0-21.567 9.243-21.567 21.567s9.243 20.54 21.567 20.54h685.013c11.297 0 20.54-9.243 20.54-20.54s-9.243-21.567-20.54-21.567z" />
<glyph unicode="&#xe898;" glyph-name="section" d="M59.566 873.155c-16.432-16.432-20.54-37.999-20.54-63.674v-762.038c0-25.675 8.216-47.242 25.675-63.674s37.999-25.675 63.674-25.675h770.254c25.675 0 47.242 8.216 64.701 25.675 16.432 16.432 25.675 37.999 25.675 63.674v762.038c0 25.675-9.243 47.242-25.675 63.674-21.567 17.459-43.134 25.675-64.701 25.675h-770.254c-29.783 5.135-51.35-8.216-68.809-25.675M128.375 714.997h752.795v-282.427h-752.795v282.427M886.307 339.113v-283.454h-757.93v283.454h757.93z" />
<glyph unicode="&#xe8f0;" glyph-name="book" d="M748.19 315.943q52.153 0 108.318-10.030v-64.189q-40.117 10.030-108.318 10.030-120.352 0-192.564-42.123v72.211q76.222 34.099 192.564 34.099zM555.627 396.177q84.246 34.099 192.564 34.099 52.153 0 108.318-10.030v-64.189q-40.117 10.030-108.318 10.030-120.352 0-192.564-42.123v72.211zM748.19 480.424q-120.352 0-192.564-42.123v70.205q80.234 36.105 192.564 36.105 52.153 0 108.318-10.030v-66.195q-48.141 12.036-108.318 12.036zM898.631 137.42v493.444q-66.195 20.060-150.441 20.060-130.381 0-234.687-64.189v-491.438q104.306 64.189 234.687 64.189 78.228 0 150.441-22.066zM748.19 737.175q152.447 0 236.693-64.189v-623.826q0-8.024-7.021-15.045t-15.045-7.021q-6.018 0-10.030 2.006-82.24 44.129-204.599 44.129-130.381 0-234.687-64.189-86.252 64.189-234.687 64.189-108.318 0-204.599-46.135-2.006 0-5.015-1.003t-5.015-1.003q-8.024 0-15.045 6.018t-7.021 14.042v627.838q86.252 64.189 236.693 64.189 148.435 0 234.687-64.189 86.252 64.189 234.687 64.189z" />
<glyph unicode="&#xe8f7;" glyph-name="plus-circle-o" d="M513.502-47.042c-260.859 0-474.476 214.644-474.476 475.503s213.617 475.503 474.476 475.503 475.503-214.644 475.503-475.503-214.644-475.503-475.503-475.503zM513.502 47.443c209.509 0 381.019 171.509 381.019 381.019s-171.509 381.019-381.019 381.019-381.019-171.509-381.019-381.019 171.509-381.019 381.019-381.019zM466.26 475.704v179.726c0 25.675 21.567 47.242 47.242 47.242s47.242-21.567 47.242-47.242v-179.726h179.726c25.675 0 47.242-21.567 47.242-47.242s-21.567-47.242-47.242-47.242h-179.726v-179.726c0-25.675-21.567-47.242-47.242-47.242s-47.242 21.567-47.242 47.242v179.726h-179.726c-25.675 0-47.242 21.567-47.242 47.242s21.567 47.242 47.242 47.242h179.726z" />
<glyph unicode="&#xe900;" glyph-name="add-product" d="M512 576c-117.632 0-213.334-95.702-213.334-213.334s95.702-213.332 213.334-213.332 213.334 95.702 213.334 213.334-95.702 213.332-213.334 213.332zM640 320h-85.334v-85.334c0-23.552-19.072-42.666-42.666-42.666s-42.666 19.114-42.666 42.666v85.334h-85.334c-23.594 0-42.666 19.114-42.666 42.666s19.072 42.666 42.666 42.666h85.334v85.334c0 23.552 19.072 42.666 42.666 42.666s42.666-19.114 42.666-42.666v-85.334h85.334c23.594 0.002 42.666-19.114 42.666-42.666s-19.072-42.666-42.666-42.666zM845.44 874.666h-120.106v20.352c0 35.84-29.142 64.982-64.94 64.982h-296.788c-35.798 0-64.938-29.142-64.938-64.982v-20.352h-120.108c-51.414 0-93.226-41.814-93.226-93.226v-752.214c0-51.412 41.812-93.226 93.226-93.226h666.88c51.414 0 93.226 41.814 93.226 93.226v752.214c0 51.414-41.812 93.226-93.226 93.226zM384 874.666h256v-85.334h-256v85.334zM512 64c-164.65 0-298.666 133.974-298.666 298.666s134.016 298.668 298.666 298.668 298.666-133.974 298.666-298.666-134.016-298.668-298.666-298.668z" />
<glyph unicode="&#xe901;" glyph-name="update-product" d="M845.44 874.666h-120.106v20.352c0 35.84-29.142 64.982-64.94 64.982h-296.788c-35.798 0-64.938-29.142-64.938-64.982v-20.352h-120.108c-51.414 0-93.226-41.814-93.226-93.226v-752.214c0-51.412 41.812-93.226 93.226-93.226h666.88c51.414 0 93.226 41.814 93.226 93.226v752.214c0 51.414-41.812 93.226-93.226 93.226zM384 874.666h256v-85.334h-256v85.334zM469.334 362.666c-10.922 0-21.846 4.182-30.166 12.502l-12.502 12.502v-195.67c0-23.552-19.072-42.666-42.666-42.666s-42.666 19.114-42.666 42.666v195.67l-12.502-12.502c-8.32-8.32-19.242-12.502-30.166-12.502-10.922 0-21.846 4.182-30.166 12.502-16.682 16.682-16.682 43.648 0 60.33l85.29 85.29c3.926 3.968 8.662 7.082 13.91 9.258 10.41 4.31 22.186 4.31 32.598 0 5.248-2.176 9.984-5.29 13.91-9.258l85.29-85.29c16.682-16.682 16.682-43.648 0-60.33-8.32-8.32-19.242-12.502-30.164-12.502zM755.498 247.168l-85.29-85.29c-3.926-3.968-8.662-7.082-13.91-9.258-5.206-2.134-10.752-3.286-16.298-3.286s-11.094 1.152-16.298 3.286c-5.248 2.176-9.984 5.29-13.91 9.258l-85.29 85.29c-16.682 16.682-16.682 43.648 0 60.33s43.648 16.682 60.33 0l12.502-12.502v195.67c0 23.552 19.072 42.666 42.666 42.666s42.666-19.114 42.666-42.666v-195.67l12.502 12.502c16.682 16.682 43.648 16.682 60.33 0s16.684-43.648 0-60.33z" />
<glyph unicode="&#xe902;" glyph-name="pagination-right-arrow" d="M426.667 704l-60.16-60.16 195.413-195.84-195.413-195.84 60.16-60.16 256 256z" />
<glyph unicode="&#xe903;" glyph-name="pagination-left-arrow" d="M657.493 643.84l-60.16 60.16-256-256 256-256 60.16 60.16-195.413 195.84z" />
<glyph unicode="&#xe904;" glyph-name="pagination-next-arrow" d="M238.507 643.84l195.84-195.84-195.84-195.84 60.16-60.16 256 256-256 256zM682.667 704h85.333v-512h-85.333z" />
<glyph unicode="&#xe905;" glyph-name="pagination-prev-arrow" d="M785.493 252.16l-195.84 195.84 195.84 195.84-60.16 60.16-256-256 256-256zM256 704h85.333v-512h-85.333z" />
<glyph unicode="&#xe906;" glyph-name="refresh" d="M472 960c21.333 0 42.667 0 64 0 71.726-58.186 146.394-114.186 224-168 22.957-36.275 17.624-68.275-16-96-77.787-59.115-157.787-115.115-240-168-9.376 3.349-17.376 8.682-24 16-7.928 31.563-10.594 63.563-8 96-144.192-18.896-218.859-101.563-224-248 30.2-220.488 152.866-300.488 368-240 143.773 95.442 181.106 223.442 112 384 87.355 148.042 159.355 145.376 216-8 56.664-292.187-52.669-489.522-328-592-74.667 0-149.333 0-224 0-210.782 76.637-328.116 228.637-352 456 32.449 259.086 176.45 411.086 432 456 0 37.333 0 74.667 0 112z" />
<glyph unicode="&#xe907;" glyph-name="refresh-buttons" d="M-1 417c0 33.334 0 66.666 0 100 4.089 62.996 22.422 121.662 55 176 56.596 71.83 129.596 118.83 219 141 96.786 19.543 190.786 10.21 282-28 23.15-9.574 45.816-20.241 68-32 18.134-7.797 31.134-2.797 39 15 6.412 30.057 13.078 60.057 20 90 4.678 9.513 11.678 11.846 21 7 70.092-111.837 138.426-224.836 205-339 3.968-18.416-3.032-30.082-21-35-97.944-21.588-195.944-42.922-294-64-7.946-1.996-15.946-2.662-24-2-7.992 1.672-11.992 6.672-12 15 9.212 25.096 19.546 49.762 31 74 10.652 26.676 4.986 49.010-17 67-67.15 45.744-139.816 80.41-218 104-158.073 42.812-263.073-12.856-315-167-14.307-51.178-24.307-103.178-30-156-1.333-2.666-2.667-2.666-4 0-1.617 11.634-3.284 22.966-5 34zM1023 457c0-33.334 0-66.666 0-100-4.038-64.464-21.704-125.132-53-182-25.844-37.846-58.178-68.846-97-93-93.956-60.388-195.956-79.722-306-58-59.874 11.956-116.54 32.624-170 62-17.46 8.176-31.792 4.508-43-11-8-22.666-16-45.334-24-68-8.062-16.682-18.062-18.016-30-4-51.334 97.334-102.667 194.666-154 292-12.105 21.234-8.438 38.9 11 53 86.666 26.666 173.334 53.334 260 80 9.458 1.992 18.458 0.992 27-3 3.104-4.536 4.77-9.536 5-15-8.352-34.744-17.020-69.412-26-104 1.678-18.692 9.678-34.026 24-46 72.744-47.696 151.41-82.364 236-104 159.264-32.22 261.598 29.446 307 185 11.67 45.346 19.67 91.346 24 138 1.486 4.29 3.152 4.622 5 1 1.144-7.97 2.478-15.636 4-23z" />
<glyph unicode="&#xe908;" glyph-name="centralized-connections" d="M876.561 472.348c15.971-28.252 48.515-44.79 82.301-38.832 42.857 7.557 71.484 48.433 63.926 91.287-7.557 42.859-48.436 71.484-91.293 63.926-33.789-5.958-58.717-32.62-64.058-64.644l-216.963-38.254c-4.621 16.948-12.262 32.644-22.318 46.476l138.938 165.585c30.395-11.385 65.952-3.129 88.009 23.15 27.97 33.342 23.628 83.047-9.711 111.025-33.34 27.97-83.052 23.62-111.023-9.717-22.055-26.279-24.012-62.726-7.521-90.686l-136.897-163.147c-15.44 10.011-32.917 17.127-51.688 20.597v211.189c30.603 10.825 52.537 39.999 52.537 74.305 0 43.521-35.284 78.81-78.805 78.81s-78.805-35.289-78.805-78.81c0-34.309 21.934-63.48 52.537-74.305v-211.186c-18.769-3.47-36.245-10.586-51.688-20.597l-136.894 163.147c16.489 27.963 14.537 64.41-7.515 90.686-27.976 33.342-77.686 37.695-111.025 9.717s-37.687-77.686-9.711-111.025c22.055-26.284 57.609-34.532 88.007-23.15l138.941-165.585c-10.061-13.835-17.702-29.528-22.323-46.476l-216.96 38.252c-5.343 32.018-30.266 58.689-64.053 64.644-42.862 7.557-83.738-21.062-91.295-63.921-7.555-42.859 21.067-83.735 63.926-91.293 33.786-5.96 66.327 10.573 82.301 38.832l221.759-39.103c1.581-15.48 5.653-30.211 11.755-43.836l-198.664-114.695c-24.674 21.091-60.908 25.504-90.62 8.348-37.692-21.763-50.608-69.96-28.848-107.647 21.763-37.695 69.963-50.608 107.653-28.84 29.712 17.148 44.012 50.732 38.084 82.648l202.384 116.844c9.493-9.415 20.292-17.503 32.102-23.991l-80.751-221.854c-32.457 0.297-63.049-19.62-74.783-51.856-14.884-40.894 6.205-86.121 47.096-101.004 40.9-14.889 86.123 6.202 101.007 47.099 11.737 32.239 1.103 67.157-23.951 87.796l81.34 223.48c6.223-0.82 12.556-1.287 19.002-1.287s12.782 0.468 19.002 1.287l81.34-223.48c-25.057-20.634-35.688-55.552-23.957-87.796 14.886-40.892 60.11-61.988 101.004-47.104 40.897 14.889 61.988 60.115 47.102 101.009-11.731 32.236-42.321 52.153-74.78 51.851l-80.751 221.859c11.81 6.488 22.609 14.576 32.105 23.991l202.379-116.849c-5.929-31.908 8.374-65.5 38.084-82.653 37.695-21.758 85.892-8.845 107.65 28.84 21.763 37.692 8.845 85.889-28.845 107.647-29.712 17.156-65.944 12.751-90.62-8.343l-198.662 114.698c6.099 13.628 10.174 28.359 11.755 43.836l221.754 39.106z" />
<glyph unicode="&#xe909;" glyph-name="desktop-pc-valuation" d="M22.86 812h771.64c12.6 0 22.86-10.26 22.86-22.86v-223.96c-10.767 1.943-23.275 3.157-36.030 3.358l-0.19 0.002v184.74c0 11.080-9.020 20.18-20.2 20.18h-704.46c-11.12 0-20.26-9.040-20.2-20.18v-373.040c0-11.1 9.1-20.18 20.2-20.18h485.32c-1.24-9.7-1.86-19.52-1.86-29.34 0-12.84 1.080-25.6 3.16-38.2h-520.24c-12.6 0-22.86 10.26-22.86 22.84v473.78c0 12.6 10.26 22.86 22.86 22.86zM779.84 398.76v17.32h29.18v-16.88c13.76-0.68 26.060-2.72 39.52-5.6v-31.080c-7 0.54-14.86 0.98-23.62 1.32s-16.72 0.5-23.86 0.5c-4.26 0-8.080-0.28-11.42-0.8-15.32-2.48-15.52-22.62 4.34-22.62h15.060c10.66 0 19.52-1.78 26.6-5.34s12.4-8.4 15.98-14.52c3.58-6.14 5.36-13.080 5.36-20.9v-6.64c0-12.8-2.5-22.54-7.52-29.26-5.020-6.74-12.2-11.28-21.48-13.64-6.24-1.58-11.060-2.64-18.96-3.14v-18.84h-29.18v18.74c-14.020 0.72-26.080 2.3-39.74 5.56v31.080c17.26-1.34 34.96-1.82 52.28-1.82 5.020 0 9.2 0.34 12.56 1.020 15.46 3.1 12.96 20.58-1.84 20.58h-12.080c-17.66 0-31.060 3.42-40.2 10.28-9.12 6.88-13.7 18.38-13.7 34.52v6.66c0 14.8 5.040 25.88 15.080 33.2 7.5 5.46 15.22 8.9 27.64 10.3zM792.8 502.6c24.86 0 48.64-4.96 70.34-13.96 23.235-9.772 43.070-23.264 59.718-39.938l0.002-0.002c16.676-16.65 30.168-36.485 39.487-58.514l0.453-1.206c8.841-20.745 13.98-44.879 13.98-70.213 0-0.052 0-0.104 0-0.156v0.008c0-18.2-2.68-35.86-7.64-52.52-4.864-16.132-11.231-30.169-19.174-43.137l0.454 0.797 71.26-77.68c1.438-1.56 2.32-3.652 2.32-5.95 0-2.557-1.091-4.858-2.834-6.464l-0.006-0.006-52.32-47.78c-1.552-1.422-3.629-2.294-5.91-2.294-2.559 0-4.862 1.097-6.464 2.848l-0.006 0.007-68.14 74.94c-12.148-7.524-26.153-13.941-40.96-18.533l-1.3-0.347c-15.926-5-34.238-7.88-53.224-7.88-0.013 0-0.025 0-0.038 0h0.002c-24.88 0-48.68 4.98-70.36 13.98-22.5 9.3-42.8 23-59.74 39.94l-0.4 0.44c-16.459 16.561-29.802 36.241-39.064 58.071l-0.456 1.209c-9 21.7-13.96 45.48-13.96 70.36s4.96 48.66 13.94 70.36c9.796 23.227 23.285 43.057 39.941 59.721l-0.001-0.001c16.94 16.94 37.24 30.64 59.74 39.94 21.68 9 45.48 13.96 70.36 13.96zM896.6 422.44c-13.304 13.294-29.136 24.061-46.713 31.516l-0.967 0.364-0.46 0.2c-17.1 7-35.92 10.9-55.66 10.9-19.94 0-38.92-3.96-56.18-11.1-18.532-7.811-34.353-18.579-47.639-31.879l-0.001-0.001c-13.306-13.304-24.074-29.145-31.517-46.735l-0.363-0.965-0.2-0.44c-7.020-17.1-10.88-35.94-10.88-55.68 0-19.94 3.94-38.92 11.080-56.16 7.4-17.92 18.34-34.1 31.88-47.64 13.58-13.56 29.74-24.48 47.62-31.88 17.3-7.16 36.28-11.1 56.2-11.1s38.88 3.94 56.12 11.080c18.543 7.819 34.376 18.585 47.681 31.881l-0.001-0.001c13.54 13.56 24.46 29.74 31.88 47.66 7.14 17.24 11.1 36.22 11.1 56.16 0 19.92-3.96 38.9-11.080 56.12-7.821 18.553-18.594 34.392-31.9 47.7v0zM305 260.96h207.36c0.54-35.86 15.32-85.7 55.36-110.96h-318.080c32.24 23.36 55.5 69.26 55.36 110.96z" />
<glyph unicode="&#xe90a;" glyph-name="dynamic-pricing" d="M470.866 957.024c-19.509-2.37-50.868-8.925-68.653-14.569-140.161-44.429-234.052-174.44-227.17-313.922 4.977-98.871 55.454-187.001 139.975-244.908 20.845-14.385 64.252-35.326 88.535-42.791 97.524-29.86 202.697-16.386 287.214 36.964 153.741 97.055 195.043 294.801 92.17 441.199-40.157 57.18-102.687 102.154-171.719 123.82-33.653 10.379-56.408 13.838-97.331 14.385-19.888 0.365-39.391 0.186-43.020-0.178zM532.816 925.342c94.464-8.559 174.393-54.628 225.835-129.835 19.696-28.946 34.036-63.001 42.453-101.419 5.351-23.853 4.778-83.577-0.958-108.526-12.237-54.082-37.863-100.51-76.298-139.114-84.517-84.675-212.064-111.802-326.412-69.194-79.358 29.497-144.183 93.772-172.1 170.979-12.81 34.783-15.297 50.805-15.297 93.958 0 42.066 2.103 56.265 14.15 90.679 36.907 105.247 137.871 181.543 254.323 192.287 23.71 2.187 31.169 2.187 54.305 0.184zM482.91 896.023c-63.293-5.464-118.364-30.226-164.26-73.566-55.071-52.257-81.455-116.351-78.594-191.189 2.683-65.737 29.067-123.275 77.64-169.345 39.199-36.962 82.414-59.359 136.532-70.466 15.868-3.279 25.815-4.008 52.967-4.008s37.097 0.729 52.965 4.008c93.125 19.118 165.411 78.115 198.869 162.421 14.154 35.508 19.503 87.038 13.197 126.548-3.828 22.764-14.723 56.089-25.051 75.753-17.4 33.141-47.614 67.371-79.161 90.137-51.249 36.778-120.664 55.353-185.104 49.707zM537.217 863.248c33.462-4.188 65.97-15.481 95.611-32.776 21.989-12.927 55.454-44.433 70.175-65.917 39.965-57.723 49.529-131.105 25.815-195.746-26.767-72.473-88.531-125.643-168.086-144.394-22.942-5.28-67.496-6.738-91.015-2.732-56.22 9.284-101.923 33.686-139.399 74.473-65.782 71.377-75.915 176.626-24.863 259.109 47.618 76.476 140.356 119.822 231.762 107.983zM495.53 830.835c-4.207-3.279-4.59-5.282-5.544-24.035l-0.956-20.576-14.916-2.189c-66.357-9.83-100.389-45.881-88.533-94.136 5.542-22.575 19.118-38.056 42.064-48.433 17.783-8.014 36.909-11.289 74.961-13.111 38.242-1.636 59.658-5.102 74.766-12.018 26.198-11.655 34.421-39.877 17.59-59.363-6.308-7.465-23.712-16.202-40.919-20.574-17.977-4.553-59.851-5.462-79.548-1.638-32.889 6.371-56.027 20.576-63.103 39.33-2.292 6.011-5.927 12.204-8.223 13.478-6.31 4.366-15.87 3.457-21.608-2.005-4.207-4.008-4.78-5.827-4.014-13.292 1.915-18.393 19.313-40.425 41.685-52.445 13.771-7.645 41.687-16.386 57.369-18.207l12.429-1.454 0.956-21.488c0.954-20.029 1.337-21.852 5.544-25.129 6.308-4.917 16.445-4.551 22.184 1.092 4.588 4.188 4.776 5.646 4.776 24.4v20.034l6.314 0.909c36.329 5.097 47.423 8.010 66.736 17.842 15.485 7.832 29.256 20.759 35.566 33.686 4.588 9.29 5.161 12.747 5.161 28.77 0 15.845-0.573 19.485-4.97 28.226-8.985 18.211-23.519 30.769-46.275 39.516-18.547 7.098-34.040 9.648-72.471 11.467-39.776 2.003-57.75 4.737-71.713 11.653-17.398 8.376-24.47 20.58-23.134 39.512 0.958 13.296 7.459 21.674 23.333 30.048 36.899 19.302 105.167 16.935 136.718-4.917 8.794-6.009 15.487-15.112 15.487-21.123 0-2.185 2.105-6.189 4.59-9.101 5.927-6.556 18.166-7.105 24.48-0.913 9.751 9.288 0.76 36.235-17.021 51.169-16.251 13.836-45.509 25.309-72.090 28.406l-10.711 1.274v19.485c-0.188 20.029-1.145 23.308-8.983 27.128-6.124 3.097-13.005 2.732-17.977-1.274zM71.018 463.016l-5.544-5.282v-238.895h-15.297c-16.062 0-25.242-2.734-27.537-8.194-0.569-1.638-1.147-18.031-1.147-36.422v-33.319l5.933-4.737c5.349-4.19 7.457-4.733 21.985-4.733h16.062v-89.043c0-52.443 0.766-91.044 1.913-93.776 2.679-7.098 12.046-10.924 20.267-8.372 12.431 4.002 12.243 2.552 12.243 101.966v89.225h16.062c14.533 0 16.636 0.543 21.987 4.733l5.929 4.737v33.866c-0.188 42.975-0.766 44.069-28.492 44.069h-15.487l-0.385 120.359-0.573 120.361-5.351 4.368c-7.459 6.009-15.493 5.644-22.569-0.911zM111.37 175.135v-10.924h-57.367v21.848h57.367v-10.924zM920.805 463.927l-5.356-4.368-0.573-61.184-0.573-61.182h-16.060c-14.34 0-16.447-0.543-21.799-4.731l-5.929-4.739v-67.369l5.546-5.282c5.353-5.102 6.498-5.28 21.991-5.28h16.441v-147.493c0-163.697-0.379-158.054 12.046-161.874 7.844-2.552 14.918-0.549 19.315 5.644 2.679 3.639 3.060 19.481 3.060 153.862v149.86h15.299c16.062 0 25.238 2.73 27.535 8.196 1.53 4.002 1.53 67.009 0 71.008-2.298 5.466-11.473 8.196-27.535 8.196h-15.299v120.541l-5.544 5.282c-7.076 6.556-15.11 6.92-22.565 0.911zM960.389 293.493v-10.926h-57.369v21.852h57.369v-10.926zM216.541 387.815c-9.755-4.915-9.562-1.821-9.562-149.314v-138.021h-15.297c-16.065 0-25.246-2.734-27.539-8.196-0.573-1.636-1.145-18.029-1.145-36.237v-33.319l4.97-4.372c4.207-3.822 7.074-4.366 21.991-4.915l17.019-0.727v-29.682c0-16.386 0.766-31.863 1.911-34.417 0.956-2.728 4.782-6.187 8.606-7.827 6.31-2.914 7.078-2.914 13.386 0 3.826 1.64 7.649 5.1 8.608 7.827 1.145 2.554 1.909 18.031 1.909 34.417v29.682l17.019 0.727c14.914 0.549 17.781 1.094 21.989 4.915l4.973 4.372v33.319c0 18.209-0.575 34.601-1.145 36.237-2.3 5.462-11.475 8.196-27.349 8.196h-15.487l-0.383 140.206c-0.573 137.476-0.573 140.206-4.399 143.669-4.968 4.915-14.148 6.369-20.074 3.459zM252.871 56.779v-10.926h-57.362v21.848h57.362v-10.922zM783.127 388.178c-9.943-3.822-10.136-6.371-10.136-91.044v-78.295h-15.487c-27.537 0-28.303-1.094-28.492-43.34v-33.501l5.544-5.282c5.353-5.102 6.5-5.282 21.993-5.282h16.441v-89.225c0-99.414-0.193-97.964 12.241-101.966 5.353-1.64 7.645-1.458 12.427 0.907 3.248 1.458 6.693 4.37 7.842 6.193 1.145 2.365 1.911 35.508 1.911 93.774v90.317h16.065c14.529 0 16.632 0.543 21.987 4.733l5.931 4.737v33.319c0 18.391-0.578 34.783-1.147 36.422-2.296 5.46-11.475 8.194-27.539 8.194h-15.297v160.053l-4.205 4.553c-4.977 5.276-13.769 7.281-20.081 4.733zM818.885 175.135v-10.924h-57.367v21.848h57.367v-10.924zM355.94 316.619c-7.078-5.097-7.457-9.107-7.457-68.284v-58.268l-17.021-0.727c-14.916-0.543-17.781-1.094-21.991-4.917l-4.968-4.368v-33.325c0-18.209 0.569-34.597 1.149-36.235 2.292-5.462 11.471-8.194 27.533-8.194h15.299v-74.654c0-82.491 0.186-83.401 11.663-87.22 7.838-2.552 18.166 1.454 20.842 8.010 1.149 2.912 1.911 34.232 1.911 79.21v74.289l18.358 0.729c26.198 0.731 25.625-0.178 25.625 43.153v34.236l-4.973 4.368c-4.207 3.824-7.076 4.375-21.991 4.917l-17.019 0.727v58.085c0 69.376-0.381 71.010-17.783 70.834-3.441 0-7.457-1.092-9.177-2.367zM394.377 146v-10.926h-57.369v21.852h57.369v-10.926zM636.459 313.34c-4.78-5.46-4.968-6.371-4.968-30.046v-24.394h-16.065c-14.533 0-16.636-0.549-21.989-4.743l-5.929-4.729v-68.465l5.929-4.735c5.353-4.188 7.457-4.735 21.989-4.735h16.065v-109.253c0-119.996-0.195-117.443 11.469-121.997 4.59-1.823 6.885-1.823 11.475 0 12.046 4.733 11.473-0.729 11.473 120.543v110.707h16.062c14.535 0 16.634 0.547 21.991 4.735l5.927 4.735v33.321c0 18.391-0.573 34.777-1.145 36.42-2.298 5.46-11.477 8.196-27.535 8.196h-15.301v23.667c0 31.32-2.486 36.42-18.164 36.42-4.784 0-7.649-1.458-11.284-5.646zM677.38 215.198v-10.928h-57.364v21.852h57.364v-10.924zM497.445 289.305c-7.268-5.282-7.459-8.010-7.459-99.418v-89.405h-15.301c-16.060 0-25.24-2.734-27.533-8.196-0.575-1.636-1.149-18.029-1.149-36.42v-33.319l5.929-4.737c5.353-4.188 7.459-4.733 21.993-4.733h16.060v-30.044c0-33.688 1.337-38.787 11.471-42.789 5.163-2.001 7.078-2.001 12.622 0.545 3.635 1.64 7.457 5.1 8.411 7.827 1.149 2.554 1.915 18.031 1.915 34.599v29.862h16.062c14.533 0 16.636 0.545 21.991 4.733l5.927 4.737v33.319c0 18.391-0.571 34.783-1.149 36.42-2.294 5.462-11.471 8.196-27.533 8.196h-15.299v89.221c0 94.321-0.381 97.78-8.606 100.876-5.163 1.823-15.106 1.094-18.354-1.274zM535.88 56.779v-10.926h-57.369v21.848h57.369v-10.922z" />
<glyph unicode="&#xe90c;" glyph-name="social-media-content" d="M153.66 648.94c1.2-1.38 2.96-2.24 4.94-2.24 3.64 0 6.6 2.96 6.6 6.62v35.64h22.082c4.464 0.012 8.519 1.761 11.518 4.6l0.42 0.38c3.080 3.080 4.98 7.32 4.98 11.94v129.86c0 4.62-1.94 8.88-5 11.94s-7.32 5-11.92 5h-170.36c-4.38 0-8.48-1.76-11.52-4.62l-0.42-0.38c-3.040-3.060-4.98-7.28-4.98-11.94v-129.861c0.004-4.678 1.916-8.909 5-11.959 3.080-3.040 7.32-4.96 11.92-4.96h95.020l41.72-40.020zM805.58 669.2l34.28 32.86c1.32 1.28 3.040 1.9 4.76 1.9l101.74 0.040c1.060 0 2.060 0.44 2.74 1.12 0.68 0.7 1.14 1.7 1.14 2.76v117.24c0 1.040-0.46 2.040-1.16 2.72-0.7 0.7-1.68 1.16-2.72 1.16h-177.52c-1.020 0-2.020-0.46-2.72-1.16s-1.16-1.68-1.16-2.72v-117.24c0-1.040 0.44-2.040 1.16-2.74 0.68-0.68 1.68-1.14 2.72-1.14h29.88c3.78 0 6.86-3.1 6.86-6.88v-27.92zM511.28 107.66c22.44 0 40.64-18.2 40.64-40.64s-18.2-40.62-40.64-40.62-40.62 18.18-40.62 40.62c0 22.44 18.18 40.64 40.62 40.64zM406.96 339.3c52.84-59.38 172.5-48.92 216.74-0.3-10.28 11.48-21.22 27.56-30.64 41.36-2.12 3.1-4.14 6.080-6.080 8.88-19.96-13.44-43.72-21.7-73.52-21.62-33.18 0.080-59 11.46-80.46 28.86-6.040-17.98-14.86-42.74-23.38-54.54-0.76-1.060-1.66-1.94-2.66-2.64zM612.64 234.060h-427.98c-16.28 0-29.5-15.24-27.060-33.86l25.64-198.14h-65.18c0.040 105.82-37.5 235.64 73.22 297.38 41.24 23 157.22 30.8 203.58 61.18 7.1 13.3 14.96 37.18 19.64 51.42 0.54 1.6-0.32-1.040 0.48 1.38-17.040 18.3-30.96 39.92-44.34 61.18l-38.18 60.7c-13.96 20.84-21.22 39.88-21.68 55.48-0.2 7.36 1.040 14.040 3.76 19.88 2.84 6.14 7.22 11.28 13.14 15.26 2.74 1.86 5.84 3.42 9.24 4.72-2.48 32.92-3.4 74.44-1.8 109.16 0.82 8.26 2.4 16.5 4.7 24.74 13.98 49.96 56.92 85.94 105.96 102.88 23.78 8.22 14.6 27.82 38.66 26.52 57-3.12 144.94-39.84 178.74-78.82 47.36-54.6 35.14-121.82 33.54-188.42 10.6-3.22 17.38-9.94 20.16-20.8 3.080-12.040-0.26-29.020-10.48-52.16h-0.020c-0.2-0.42-0.4-0.84-0.64-1.24l-43.52-71.68c-16.78-27.62-33.82-55.32-56.54-76.6l-1.12-1.020c2.18-3.14 4.54-6.58 7-10.2 7.56-11.080 16.16-23.7 24.14-33.56 47.28-29.4 161.1-37.32 201.76-60 101.8-56.74 67-196.88 72.92-297.38h-64.88l25.64 198.14c2.42 18.64-10.78 33.86-27.060 33.86h-231.44zM358.94 613.020c-8.46-0.34-14.86-2.1-19.26-5.040-2.5-1.68-4.34-3.82-5.52-6.36-1.3-2.84-1.9-6.28-1.8-10.24 0.34-11.62 6.42-26.8 18.2-44.3l0.16-0.26 38.2-60.72c15.32-24.36 31.36-49.18 51.32-67.42 19.18-17.54 42.46-29.42 73.22-29.5 33.34-0.080 57.72 12.28 77.5 30.8 20.58 19.24 36.82 45.66 52.82 72l43.020 70.86c8.020 18.3 10.94 30.54 9.1 37.72-1.080 4.28-5.82 6.36-13.86 6.78-1.7 0.080-3.46 0.1-5.24 0.060-1.92-0.060-3.92-0.2-6-0.38-1.16-0.12-2.26-0.040-3.34 0.2-3.82-0.2-7.76 0.060-11.78 0.66l14.74 65.2c-109.32-17.24-191.080 63.96-306.64 16.22l8.32-76.84c-4.66-0.22-9.080-0.060-13.16 0.56zM858.16 546.22c8.18 0 14.82-6.64 14.82-14.84 0-8.18-6.64-14.84-14.82-14.84-8.2 0-14.86 6.66-14.86 14.84 0 8.2 6.66 14.84 14.86 14.84zM919.54 482.52l29.7 51.34 39.58-51.060v-28.7h-169.84v9.88l26.98 0.62 12.36 30.3 6.18-21.64h18.56l16.080 41.44 20.4-32.18zM808.6 593.040h190.6c6.8 0 13.020-2.8 17.52-7.28l0.4-0.46c4.26-4.46 6.88-10.52 6.88-17.080v-122.28c0-6.78-2.8-13-7.3-17.5-4.54-4.52-10.7-7.32-17.5-7.32h-190.6c-6.78 0-13 2.82-17.5 7.32-4.506 4.467-7.297 10.657-7.3 17.499v122.281c0 6.82 2.8 13.040 7.3 17.54 4.473 4.493 10.661 7.275 17.499 7.28h0.001zM999.2 577.38h-190.6c-2.5 0-4.8-1.040-6.46-2.68-1.64-1.66-2.68-3.96-2.68-6.48v-122.28c0-2.52 1.040-4.82 2.68-6.46 1.635-1.667 3.91-2.7 6.427-2.7 0.011 0 0.023 0 0.034 0h190.598c2.5 0 4.8 1.020 6.44 2.68 1.667 1.647 2.7 3.933 2.7 6.461 0 0.007 0 0.013 0 0.020v-0.001 122.28c0 2.4-0.94 4.6-2.42 6.24l-0.26 0.24c-1.657 1.647-3.938 2.669-6.458 2.68h-0.002zM801.46 739.38c-3.8 0-6.9 3.080-6.9 6.88s3.1 6.88 6.9 6.88h95.12c3.8 0 6.88-3.080 6.88-6.88s-3.080-6.88-6.88-6.88h-95.12zM801.46 781.58c-3.8 0-6.9 3.080-6.9 6.88s3.1 6.9 6.9 6.9h116.64c3.8 0 6.88-3.1 6.88-6.9s-3.080-6.88-6.88-6.88h-116.64zM847.36 690.24l-43.6-41.8c-1.26-1.36-3.060-2.22-5.040-2.22-3.8 0-6.88 3.1-6.88 6.88v37.14h-23c-4.84 0-9.28 2-12.46 5.18-3.19 3.19-5.167 7.593-5.18 12.458v117.242c0 4.82 2.020 9.26 5.2 12.44 3.2 3.2 7.62 5.2 12.44 5.2h177.52c4.82 0 9.26-2 12.44-5.2 3.196-3.179 5.175-7.578 5.18-12.439v-117.241c0-4.84-1.98-9.24-5.16-12.44-3.22-3.2-7.62-5.2-12.46-5.2h-99zM43.020 580.56h189.16c6.48 0 12.42-2.68 16.68-6.98 4.32-4.26 6.98-10.2 6.98-16.68v-122.98c0-6.46-2.68-12.38-6.96-16.66-4.32-4.32-10.24-7-16.7-7h-189.16c-6.48 0-12.4 2.68-16.7 6.96l-0.48 0.54c-4 4.24-6.46 9.94-6.46 16.16v122.98c0 6.48 2.66 12.4 6.94 16.68 4.32 4.3 10.24 6.98 16.7 6.98zM120.98 515.72l39.76-27.74c0.7-0.42 1.32-0.98 1.8-1.7 1.88-2.7 1.2-6.42-1.5-8.28l-39.68-27.42c-1.040-0.86-2.36-1.36-3.78-1.36-3.3 0-5.98 2.68-5.98 5.98v55.66c0.040 1.18 0.38 2.38 1.12 3.4 1.082 1.542 2.853 2.538 4.856 2.538 1.275 0 2.457-0.404 3.422-1.090l-0.018 0.012zM240.22 541.88h-205.24v-107.96c0-2.060 0.78-3.96 2.040-5.36l0.34-0.32c1.46-1.44 3.48-2.36 5.66-2.36h189.16c2.2 0 4.24 0.9 5.66 2.34 1.48 1.48 2.38 3.5 2.38 5.7v107.96zM155.96 758.54c4.8 0 8.7-3.88 8.7-8.68 0-4.78-3.9-8.68-8.7-8.68h-91.26c-4.78 0-8.68 3.9-8.68 8.68 0 4.8 3.9 8.68 8.68 8.68h91.26zM155.96 804.86c4.8 0 8.7-3.9 8.7-8.68 0-4.8-3.9-8.7-8.7-8.7h-111.9c-4.8 0-8.7 3.9-8.7 8.7 0 4.78 3.9 8.68 8.7 8.68h111.9z" />
<glyph unicode="&#xe90d;" glyph-name="user-network-icon" d="M817.868 830.46c44.040 0 79.755-35.715 79.755-79.755s-35.715-79.755-79.755-79.755c-15.735 0-30.47 4.579-42.875 12.488-0.5-0.666-1.082-1.332-1.748-1.915l-59.192-57.028c39.461-44.124 64.52-101.401 67.684-164.423h82.753c6.244 37.796 39.128 66.602 78.673 66.602 44.040 0 79.755-35.715 79.755-79.755s-35.715-79.755-79.755-79.755c-37.38 0-68.766 25.725-77.424 60.524-0.416 0-0.833-0.083-1.249-0.083h-83.169c-4.412-62.189-30.054-118.468-69.765-161.592l62.689-58.276c0.583-0.583 1.166-1.166 1.665-1.832 12.155 7.493 26.474 11.822 41.876 11.822 44.040 0 79.755-35.715 79.755-79.755s-35.715-79.755-79.755-79.755-79.755 35.715-79.755 79.755c0 16.983 5.328 32.718 14.403 45.705l-0.25 0.25-64.021 59.442c-46.538-39.628-106.896-63.521-172.748-63.521-68.1 0-130.206 25.475-177.327 67.434l-64.687-63.022c8.825-12.821 13.903-28.306 13.903-45.039 0-44.040-35.715-79.755-79.755-79.755s-79.755 35.715-79.755 79.755c0 44.040 35.715 79.755 79.755 79.755 15.568 0 30.137-4.496 42.459-12.238 0.25 0.333 0.5 0.583 0.833 0.833l64.354 62.689c-37.88 43.041-62.106 98.321-65.936 159.261l-91.244-0.916c-7.326-36.548-39.545-64.104-78.257-64.104-44.040 0-79.755 35.715-79.755 79.755s35.715 79.755 79.755 79.755c38.296 0 70.348-26.974 78.007-63.022h0.416l90.911 0.916c3.497 61.523 27.889 117.385 66.102 160.843l-67.684 64.687c-0.5 0.5-0.999 0.999-1.415 1.582-11.073-5.911-23.81-9.158-37.214-9.158-44.040 0-79.755 35.715-79.755 79.755 0 43.957 35.715 79.672 79.755 79.672s79.755-35.715 79.755-79.755c0-18.815-6.494-36.131-17.483-49.785l66.935-63.938c47.121 41.959 109.227 67.434 177.244 67.434 67.268 0 128.708-24.892 175.662-66.019l59.775 57.61c0.333 0.333 0.749 0.666 1.166 0.999-8.741 12.821-13.82 28.222-13.82 44.873 0 44.040 35.715 79.755 79.755 79.755v0zM477.95 419.028l22.228-65.353 11.156 38.795-5.495 5.994c-2.498 3.58-2.997 6.743-1.665 9.491 2.997 5.911 9.074 4.745 14.819 4.745 5.994 0 13.404 1.166 15.318-6.41 0.666-2.498-0.167-5.162-1.915-7.826l-5.495-5.994 11.156-38.795 20.147 65.353c14.486-13.071 57.527-15.651 73.512-24.643 5.078-2.831 9.657-6.41 13.32-11.239 5.578-7.326 8.991-16.983 9.907-29.138l3.33-32.385c-0.833-8.658-5.744-13.653-15.318-14.319h-249.673c-9.657 0.749-14.569 5.744-15.318 14.319l3.33 32.385c0.916 12.238 4.329 21.812 9.907 29.138 3.663 4.829 8.242 8.408 13.32 11.239 15.984 8.991 58.942 11.572 73.428 24.643v0zM471.956 517.848c0.25-0.5 0.333-0.999 0.333-1.582 0-0.25 0-0.5-0.083-0.833l0.416-3.080c-1.082-0.25-2.081-0.25-3.080-0.25-0.416-0.167-0.916-0.25-1.332-0.25-2.747-0.083-4.745-0.583-6.077-1.499-0.666-0.5-1.249-1.082-1.499-1.748-0.416-0.833-0.583-1.832-0.5-2.997 0.083-3.663 2.081-8.408 5.828-13.986l0.083-0.083 12.405-19.731c4.995-7.909 10.157-15.901 16.567-21.812 6.077-5.578 13.57-9.407 23.311-9.407 10.656 0 18.399 3.913 24.726 9.824 6.66 6.161 11.905 14.736 17.067 23.311l13.986 22.978c2.831 6.41 3.663 10.323 2.747 12.155-0.583 1.249-3.080 1.499-7.243 1.166-1.249-0.083-2.498 0.333-3.33 1.166-0.333 0-0.666 0-0.999 0.083l0.167 0.999c-0.25 0.5-0.416 0.999-0.5 1.582-0.167 1.415 0.5 2.747 1.499 3.663l2.914 14.736c-25.558 0.333-43.041 4.745-63.771 17.982-6.827 4.329-8.825 9.324-15.651 8.825-5.162-0.999-9.491-3.33-12.904-6.993-3.33-3.58-5.744-8.408-7.409-14.569l2.331-19.647zM577.769 517.765c2.997-0.916 5.162-2.581 6.494-5.245 2.081-4.246 1.249-10.573-2.664-19.564v0c-0.083-0.167-0.167-0.333-0.25-0.5l-14.153-23.311c-5.495-8.991-11.073-18.066-18.482-25.059-7.742-7.326-17.4-12.155-30.47-12.072-12.238 0-21.479 4.745-29.055 11.655-7.243 6.66-12.821 15.152-18.066 23.477l-12.405 19.731c-4.662 6.91-6.993 13.237-7.16 18.399-0.083 2.498 0.333 4.829 1.249 6.827 0.999 2.081 2.498 3.913 4.496 5.245 0.999 0.666 2.081 1.249 3.33 1.665-0.749 10.573-0.999 23.727-0.5 34.716 0.25 2.664 0.749 5.328 1.499 8.075 3.164 11.322 11.156 20.48 20.98 26.724 3.497 2.248 7.243 4.079 11.322 5.495 23.893 8.658 55.446 3.913 72.429-14.403 6.91-7.493 11.239-17.316 12.155-30.47l-0.749-31.386zM680.835 612.256c-0.5 0.416-0.916 0.833-1.332 1.249-0.25 0.25-0.416 0.5-0.666 0.749-42.209 41.127-99.819 66.435-163.34 66.435-63.688 0-121.381-25.392-163.59-66.602-0.5-0.749-1.082-1.415-1.665-2.081-0.833-0.833-1.665-1.582-2.664-2.248-40.96-42.209-66.269-99.736-66.269-163.174 0-64.687 26.224-123.213 68.6-165.588s100.901-68.6 165.588-68.6c64.687 0 123.213 26.224 165.588 68.6s68.6 100.901 68.6 165.588c0 64.687-26.224 123.213-68.6 165.588l-0.25 0.083z" />
<glyph unicode="&#xe90e;" glyph-name="price" horiz-adv-x="1267" d="M581.757 734.45c-37.399-7.618-102.5-42.939-136.436-74.104-24.932-22.854-44.324-49.172-62.331-85.879-25.625-51.943-26.318-54.021-26.318-132.973 0-72.72 1.385-83.108 19.392-118.43 67.18-137.129 211.926-202.229 353.903-158.598 46.402 14.544 65.102 27.703 38.784 27.703-7.618 0-25.625-4.848-39.477-10.388-60.254-25.625-147.517-18.007-217.466 18.007-44.324 22.163-94.189 76.875-119.121 129.51-20.777 42.939-22.163 51.943-22.163 115.659 0.693 59.561 3.462 74.797 18.699 108.733 49.865 108.041 138.513 166.216 251.403 165.524 125.354 0 227.163-76.182 263.869-195.996 13.852-45.017 27.703-54.021 20.777-13.852-13.852 78.953-84.494 164.831-166.909 203.615-36.706 16.621-56.098 21.47-102.5 22.854-31.165 1.385-64.409 0.693-74.104-1.385zM630.237 618.098c0-13.852-3.462-17.314-18.007-17.314-11.081 0-27.010-9.004-41.555-23.547-42.939-42.939-27.010-105.271 32.551-122.585l27.010-8.311v-65.102c0-54.021-2.078-64.409-11.081-64.409-27.703 0-58.176 36.013-58.176 69.257 0 7.618-4.848 13.852-10.388 13.852-15.237 0-13.159-40.169 3.462-67.18 9.695-16.621 22.163-24.932 44.324-31.165 27.703-6.926 31.165-11.081 33.243-29.087 2.771-27.010 15.237-27.703 18.007-2.078 1.385 11.081 7.618 21.47 13.852 23.547 56.098 17.314 77.568 41.555 77.568 86.571 0 31.858-21.47 57.483-58.868 69.949l-27.703 9.695-2.078 59.561c-1.385 54.021-0.693 60.254 10.388 60.254 20.777 0 42.246-19.392 47.095-41.555 4.848-23.547 24.24-28.396 24.24-6.926 0 35.32-20.085 55.405-70.642 72.027-6.926 2.078-12.466 10.388-12.466 18.007s-4.848 13.852-10.388 13.852c-6.233 0-10.388-6.233-10.388-17.314zM630.237 528.064c0-65.102-5.54-72.027-37.399-42.939-30.473 27.010-24.932 72.72 11.081 90.034 12.466 6.233 23.547 11.773 24.932 11.773 0.693 0 1.385-26.318 1.385-58.868zM700.879 413.791c17.314-18.007 20.085-24.932 16.621-43.632-4.848-24.932-32.551-53.328-53.328-53.328-11.773 0-13.159 4.848-13.159 58.868 0 54.712 0.693 58.868 14.544 58.868 7.618 0 23.547-9.695 35.32-20.777zM955.744 458.808v-58.868h62.331v117.737h-62.331v-58.868zM1004.224 462.271c0-39.477-0.693-41.555-17.314-41.555s-17.314 2.078-17.314 41.555c0 39.477 0.693 41.555 17.314 41.555s17.314-2.078 17.314-41.555zM751.437 462.271c2.771-4.155 41.555-6.926 94.189-6.926 54.712 0 89.341 2.771 89.341 6.926s-36.013 6.926-94.189 6.926c-60.254 0-92.112-2.771-89.341-6.926zM1038.853 462.271c0-3.462 7.618-6.926 17.314-6.926s17.314 3.462 17.314 6.926c0 4.155-7.618 6.926-17.314 6.926s-17.314-2.771-17.314-6.926zM832.467 336.223l2.078-57.483 24.932-2.078c34.629-2.771 42.246 9.004 39.477 65.794l-2.078 47.095-66.487 4.155 2.078-57.483zM879.562 337.608c0-39.477-0.693-41.555-17.314-41.555s-17.314 2.078-17.314 41.555c0 39.477 0.693 41.555 17.314 41.555s17.314-2.078 17.314-41.555zM754.899 337.608c0-3.462 13.852-6.926 31.165-6.926s31.165 3.462 31.165 6.926c0 4.155-13.852 6.926-31.165 6.926s-31.165-2.771-31.165-6.926zM914.19 337.608c0-4.155 31.165-6.926 79.646-6.926s79.646 2.771 79.646 6.926c0 4.155-31.165 6.926-79.646 6.926s-79.646-2.771-79.646-6.926zM905.187 271.122c-2.771-2.771-4.848-29.087-4.848-58.868 0-51.943 0.693-54.712 16.621-58.868 9.004-2.078 24.24-2.771 32.551-1.385 15.93 2.078 16.621 4.155 16.621 60.946v58.868l-27.703 2.078c-15.93 1.385-30.473 0-33.243-2.771zM954.359 215.023c-2.078-35.32-4.155-40.169-17.314-42.246-15.237-2.078-15.93 0-15.93 39.477 0 40.862 0.693 42.246 17.314 42.246 17.314 0 18.007-1.385 15.93-39.477zM754.899 216.409c0-8.311 11.081-10.388 66.487-10.388 49.865 0 65.794 2.078 63.716 9.004-2.078 5.54-23.547 9.004-66.487 10.388-53.328 1.385-63.716 0-63.716-9.004zM988.295 221.949c-11.773-11.773-1.385-15.93 40.169-15.93 35.32 0 45.017 2.078 45.017 10.388s-9.004 10.388-40.169 10.388c-22.163 0-42.939-2.078-45.017-4.848z" />
<glyph unicode="&#xe90f;" glyph-name="catalog" d="M513.001-48.095l-513.001 141.076v726.752l171.001-42.751v128.25l342.001-98.325 342.001 98.325v-128.25l171.001 42.751v-726.752l-513.001-141.076zM85.499 157.106l427.501-119.701 427.501 115.426v555.752l-85.499-21.375v-470.251l-342.001-94.051-342.001 98.325v470.251l-85.499 21.375v-555.752zM555.752 729.956v-508.726l213.751 59.849v513.001l-213.751-64.126zM256.5 285.356l213.751-59.849v504.452l-213.751 59.849v-504.452z" />
<glyph unicode="&#xe910;" glyph-name="contact-form" d="M707.498-10.357h-634.675v890.679h634.673v-220.778l67.66 67.662v186.946c0.002 18.682-15.148 33.83-33.828 33.83h-702.335c-18.684 0-33.836-15.148-33.836-33.83v-958.343c0-18.682 15.15-33.83 33.836-33.83h702.335c18.68 0 33.83 15.148 33.83 33.83v372.276l-67.66-67.662v-270.779zM607.757 799.177h-435.195c-14.27 0-25.849-11.579-25.849-25.853 0-14.272 11.579-25.851 25.849-25.851h435.193c14.274 0 25.851 11.579 25.851 25.851 0.002 14.274-11.577 25.853-25.849 25.853zM633.608 635.444c0 14.272-11.579 25.853-25.851 25.853h-435.195c-14.27 0-25.849-11.581-25.849-25.853 0-14.274 11.579-25.853 25.849-25.853h435.193c14.274 0 25.853 11.577 25.853 25.853zM571.384 523.413h-398.822c-14.27 0-25.849-11.581-25.849-25.853 0-14.274 11.579-25.851 25.849-25.851h347.115l51.706 51.704zM426.769 352.021c3.498 11.714 8.499 22.94 14.59 33.512h-268.796c-14.27 0-25.849-11.579-25.849-25.853 0-14.272 11.579-25.853 25.849-25.853h248.786l5.419 18.197zM172.562 247.647c-14.27 0-25.849-11.579-25.849-25.853 0-14.27 11.579-25.851 25.849-25.851h227.091c-6.701 16.257-8.433 34.217-3.702 51.704h-223.389zM999.704 752.165c-13.546 13.552-31.913 21.158-51.049 21.158s-37.499-7.604-51.030-21.142l-382.48-382.49c-10.437-10.432-18.093-23.277-22.32-37.416l-30.479-102.168c-1.297-4.324-0.119-9.005 3.080-12.203 2.339-2.341 5.471-3.602 8.682-3.602 1.163 0 2.356 0.166 3.519 0.52l102.162 30.484c14.143 4.225 26.985 11.885 37.418 22.317l382.492 382.476c13.531 13.533 21.142 31.895 21.142 51.032 0 19.142-7.606 37.503-21.14 51.034z" />
<glyph unicode="&#xe911;" glyph-name="exclude" d="M983.253 605.98h-299.252v85.5h-684.001v-128.25h384.751v-85.5h-384.751v-171c0-23.598 19.152-42.75 42.75-42.75h299.25v-299.25c0-23.598 19.152-42.75 42.75-42.75h598.502c23.598 0 42.75 19.152 42.75 42.75v598.5c0.002 23.598-19.15 42.75-42.748 42.75zM427.5 477.73v42.75h171v-171h-171v128.25zM940.502 7.481h-513.001v256.5h213.752c23.598 0 42.75 19.152 42.75 42.75v213.752h256.5v-513.001zM684.001 905.233c0 23.598-19.152 42.75-42.75 42.75h-598.502c-23.598 0-42.75-19.152-42.75-42.75v-128.25h684.001v128.25z" />
<glyph unicode="&#xe912;" glyph-name="inquiry" d="M897.753 776.981v-598.501h-213.751v-171.001l-260.776 171.001h-294.976v598.501h769.502zM514.875 374.062c-13.693 0-25.048-4.466-34.066-13.401s-13.526-20.082-13.526-33.441c0-14.028 4.425-25.55 13.276-34.568s20.29-13.526 34.317-13.526c13.693 0 25.006 4.508 33.941 13.526s13.401 20.29 13.401 33.816c0 13.693-4.466 25.048-13.401 34.066s-20.248 13.526-33.941 13.526zM533.411 646.594c-37.239 0-74.396-9.685-111.468-29.056v0l22.294-55.608c30.226 17.201 56.027 25.8 77.402 25.8 13.026 0 23.338-3.131 30.935-9.393s11.397-14.736 11.397-25.425c0-8.516-2.714-15.949-8.141-22.294-4.071-4.76-11.781-11.303-23.132-19.632v0l-26.872-19.238c-2.639-1.96-4.915-3.698-6.83-5.214v0l-4.663-3.886c-4.175-3.758-7.514-8.058-10.020-12.901-4.341-8.349-6.512-23.129-6.512-44.336v0-22.044h73.894v10.27c0 15.197 1.921 25.758 5.762 31.687s14.111 14.486 30.81 25.675v0l7.891 5.399c17.68 12.484 30.247 24.17 37.699 35.054 8.516 12.441 12.774 27.429 12.774 44.963 0 25.883-8.768 46.925-26.302 63.124-19.871 18.036-48.846 27.052-86.92 27.052z" />
<glyph unicode="&#xe913;" glyph-name="price-quote-icon" d="M177.286 859.81c17.894 0 34.146-7.274 45.87-18.998 5.47-5.49 9.98-11.924 13.226-19.078h105.626c3.246 7.134 7.756 13.586 13.206 19.058 11.742 11.722 27.974 19.018 45.89 19.018 17.894 0 34.146-7.294 45.87-18.998 5.47-5.49 9.98-11.944 13.226-19.078h105.626c3.246 7.134 7.756 13.586 13.226 19.058 11.742 11.722 27.974 19.018 45.87 19.018 17.914 0 34.146-7.294 45.87-18.998 5.49-5.49 9.98-11.944 13.226-19.078h105.606c3.246 7.134 7.756 13.586 13.206 19.058 11.742 11.722 27.994 19.018 45.91 19.018 17.894 0 34.126-7.294 45.85-18.998 5.47-5.49 9.98-11.944 13.226-19.078h91.378c14.808 0 26.812-12.004 26.812-26.812v-676.34c-0.060-10.2-5.932-19.938-15.81-24.388-123.32-55.99-309.504-83.744-495.287-83.744-185.622 0-372.247 27.754-496.75 82.742-10.56 3.608-18.156 13.606-18.156 25.39v676.34c0 14.808 12.004 26.812 26.792 26.812h91.398c3.246 7.134 7.756 13.586 13.226 19.058 11.742 11.722 27.974 19.018 45.87 19.018zM433.767 304.146c16.192 0 29.318-13.146 29.318-29.318s-13.126-29.318-29.318-29.318c-16.172 0-29.298 13.146-29.298 29.318s13.126 29.318 29.298 29.318zM433.767 447.606c16.192 0 29.318-13.106 29.318-29.298s-13.126-29.318-29.318-29.318c-16.172 0-29.298 13.126-29.298 29.318s13.126 29.298 29.298 29.298zM433.767 589.602c16.192 0 29.318-13.146 29.318-29.318s-13.126-29.318-29.318-29.318c-16.172 0-29.298 13.146-29.298 29.318s13.126 29.318 29.298 29.318zM745.997 300.919c14.408 0 26.090-11.682 26.090-26.090s-11.682-26.090-26.090-26.090h-215.561c-14.408 0-26.090 11.682-26.090 26.090s11.682 26.090 26.090 26.090h215.561zM861.983 444.42c14.408 0 26.090-11.702 26.090-26.11s-11.682-26.090-26.090-26.090h-331.547c-14.408 0-26.090 11.682-26.090 26.090s11.682 26.11 26.090 26.11h331.547zM872.063 586.376c14.408 0 26.11-11.682 26.11-26.090s-11.702-26.090-26.11-26.090h-341.627c-14.408 0-26.090 11.682-26.090 26.090s11.682 26.090 26.090 26.090h341.627zM215.842 270.72c-18.376 1.302-41.782 5.812-59.796 10.66v64.206l18.156-1.482c23.446-1.382 55.268-3.848 78.272-1.784 4.468 0.4 9.678 1.162 13.746 3.146 7.736 3.708 7.634 30.058 2.524 33.686-2.946 2.084-6.292 2.886-9.86 2.886h-18.736c-14.128 0-26.632 1.584-37.534 4.75-11.102 3.226-20.46 8.076-28.094 14.548-7.796 6.652-13.626 15.45-17.474 26.412-3.708 10.66-5.61 23.346-5.61 38.054v24.468c0 13.626 2.084 25.61 6.232 35.95 6.894 17.134 21.202 30.86 37.814 38.656 5.812 2.726 12.324 4.79 20.36 6.132v28.476h59.196v-27.354c9.8-0.762 17.394-2.124 26.992-3.868 10.982-1.904 21.622-4.068 32.464-6.694v-64.306l-5.712 0.5c-21.891 2.013-47.35 3.163-73.077 3.166h-0.005c-7.094 0-20.62-0.18-25.97-5.53-4.388-4.368-3.748-30.52 0.982-34.388 3.566-2.886 9.638-3.386 14.008-3.386h23.346c15.030 0 30.58-2.566 43.766-10.080 11.884-6.754 20.84-15.972 26.832-27.594 2.946-5.732 5.19-11.884 6.674-18.456 3.246-14.328 2.244-30.34 2.244-45.048 0-11.502-1.042-21.762-3.066-30.72-2.084-9.158-5.27-16.974-9.498-23.406-13.226-20.060-36.952-28.776-59.978-31.302v-30.84h-59.196v30.54zM236.382 768.132c-3.409-7.378-7.851-13.684-13.226-19.058v0c-11.742-11.742-27.974-19.038-45.87-19.038s-34.146 7.294-45.87 19.038c-5.385 5.366-9.828 11.674-13.060 18.657l-0.166 0.399h-64.586v-631.954c117.269-47.954 289.104-72.12 461.3-72.12 171.054 0 341.306 23.886 457.493 72.060v632.014h-64.586c-3.409-7.378-7.851-13.684-13.226-19.058v0c-11.742-11.742-27.994-19.038-45.85-19.038-17.914 0-34.146 7.294-45.87 19.018-5.386 5.375-9.835 11.689-13.079 18.675l-0.167 0.401h-105.606c-3.395-7.39-7.84-13.705-13.225-19.077l-0.001-0.001c-11.742-11.722-27.974-19.018-45.87-19.018s-34.146 7.294-45.87 19.038c-5.385 5.366-9.828 11.674-13.060 18.657l-0.166 0.399h-105.626c-3.403-7.387-7.846-13.701-13.226-19.078v0c-11.742-11.722-27.974-19.018-45.87-19.018-17.914 0-34.146 7.294-45.89 19.038-5.371 5.37-9.807 11.677-13.039 18.655l-0.167 0.401h-105.626z" />
<glyph unicode="&#xe914;" glyph-name="warehousing-icon" d="M78.744 626.836h574.061v-347.423h27.86v334.076h46.713c0 21.521 0 43.125 0 64.646 0.252 1.446 0.395 3.114 0.395 4.815 0 5.447-1.478 10.549-4.058 14.927l0.075-0.137c-3.832 5.014-9.203 8.678-15.401 10.3l-0.197 0.044c-2.169 0.918-4.839 1.919-7.842 3.336v0l-315.225 135.299c-14.264 6.506-21.105 9.509-30.112 9.509-9.973-0.943-19.048-4.077-26.968-8.916l0.276 0.157-14.68-6.841-278.523-119.95c-4.504-2.002-8.341-3.671-11.929-5.005-7.442-1.975-13.741-6.083-18.39-11.622l-0.045-0.055c-4.755-6.674-4.672-12.678-4.587-25.024v-65.481h50.716v-458.782h193.021v27.694h-165.161v444.435zM746.396 444.24v-223.052h-444.184v-95.942c0.141-32.547 26.498-58.903 59.058-59.045h15.265l0.099-0.57c-1.213 5.807-1.852 11.825-1.852 17.991 0 0.063 0 0.125 0 0.178l0.003 0.141c1.531 49.103 41.82 88.438 91.294 88.438s89.763-39.335 91.297-88.579v-0.002c-0.002-6.225-0.61-12.308-1.669-17.599h212.709l0.099-0.57c-1.213 5.807-1.852 11.825-1.852 17.991 0 0.063 0 0.125 0 0.178l0.003 0.141c1.531 49.103 41.82 88.438 91.294 88.438s89.763-39.335 91.297-88.579v-0.002c-0.002-6.225-0.61-12.308-1.669-17.599h12.354c35.473 0.094 64.21 28.832 64.304 64.313v109.524c0 33.115-0.25 27.194-18.934 54.804l-89.254 126.874c-17.434 26.276-9.927 22.522-41.708 22.522h-128.292zM858.005 155.541h0.005c-0.029 0-0.059 0-0.088 0-39.62 0-71.737-32.117-71.737-71.737v0c0-39.62 32.117-71.737 71.737-71.737s71.737 32.117 71.737 71.737c0 39.591-32.070 71.689-71.653 71.737zM465.956 155.541v0c-39.62 0-71.737-32.117-71.737-71.737v0c0-39.62 32.117-71.737 71.737-71.737s71.737 32.117 71.737 71.737c0 39.62-32.117 71.737-71.737 71.737zM465.956 105.492c0.025 0 0.054 0 0.083 0 11.747 0 21.271-9.523 21.271-21.271s-9.523-21.271-21.271-21.271c-11.747 0-21.271 9.523-21.271 21.271v0c0 11.747 9.523 21.271 21.271 21.271v0zM858.005 105.993c12.024 0 21.771-9.748 21.771-21.771s-9.748-21.771-21.771-21.771c-12.024 0-21.771 9.748-21.771 21.771v0c0 12.024 9.748 21.771 21.771 21.771v0zM830.312 392.356h20.52l87.085-116.196v-35.284c0 0 0 0 0 0 0-8.585-6.937-15.551-15.51-15.598h-91.762c-8.81 0.047-15.933 7.2-15.933 16.016 0 0 0 0 0 0v0 135.132c0.047 8.781 7.152 15.885 15.929 15.933h0.005zM128.793 551.261h0.017c-0.117 0.004-0.234 0.006-0.351 0.006-5.425 0-9.835-4.352-9.926-9.766v-313.144c0.047-5.625 4.624-10.172 10.26-10.172 0 0 0 0 0 0h115.112v3.009c0.036 17.557 7.821 33.295 20.187 44.037v46.461h87.252v-32.282h29.111v32.282h87.252v-32.282h141.222v261.673l-0.001 0.021c-0.229 5.417-4.694 9.74-10.168 9.74-0.032 0-0.064 0-0.092 0h-469.876zM147.727 311.276h87.252v-65.564h-87.252v65.98zM264.508 490.452h86.835v-65.564h-87.252v65.98zM148.146 490.452h86.835v-65.564h-87.252v65.98zM380.873 400.864h86.835v-65.148h-87.252v65.564zM264.508 400.864h86.835v-65.148h-87.252v65.564zM148.146 400.864h86.835v-65.148h-87.252v65.564zM362.605 776.232l75.073-97.93h-147.561l72.070 98.18z" />
<glyph unicode="&#xe916;" glyph-name="wholesale" d="M513 947.37l-513-301.311v-723.466h1026.003v723.466l-513.002 301.311zM396.187-16.455h-111.726v111.724h111.726v-111.724zM396.187 156.225h-111.726v111.724h111.726v-111.724zM396.187 328.903h-111.726v111.726h111.726v-111.726zM568.864-16.455h-111.724v111.724h111.724v-111.724zM568.864 156.225h-111.724v111.724h111.724v-111.724zM568.864 328.903h-111.724v111.726h111.724v-111.726zM741.542-16.455h-111.726v111.724h111.726v-111.724zM741.544 156.223h-111.726v111.724h111.726v-111.724zM741.544 328.903h-111.726v111.726h111.726v-111.726zM832.978-16.455v0h-30.48v518.034h-578.989v-518.034h-30.478v548.512h639.944v-548.512zM893.929-16.455v609.467h-761.852v-609.467h-71.122v627.624l452.047 265.509 452.047-265.511v-627.622h-71.118z" />
<glyph unicode="&#xe917;" glyph-name="mailchimp" d="M769.399 443.824c7.061 0.899 14.207 0.899 21.268 0 3.809 8.774 4.449 23.877 1.027 40.309-5.135 24.435-11.983 39.239-26.233 36.929s-14.805-20.028-9.67-44.46c2.868-13.735 7.96-25.504 13.607-32.779zM647.014 424.482c10.227-4.492 16.475-7.445 18.913-4.879 1.585 1.627 1.112 4.708-1.283 8.685-5.050 8.259-15.405 16.603-26.403 21.268-8.129 3.467-17.585 5.483-27.514 5.483-15.954 0-30.689-5.205-42.605-14.010l0.195 0.138c-6.848-5.007-13.266-11.983-12.409-16.176 0.341-1.368 1.326-2.395 3.724-2.74 5.65-0.643 25.291 9.286 47.928 10.697 16.005 0.984 29.271-4.023 39.454-8.472zM626.474 412.757c-13.266-2.139-20.583-6.503-25.291-10.569-4.023-3.508-6.503-7.402-6.503-10.142l1.027-2.438 2.182-0.856c2.996 0 9.758 2.74 9.758 2.74 8.865 3.448 19.125 5.446 29.85 5.446 4.567 0 9.052-0.361 13.423-1.060l-0.48 0.063c6.631-0.771 9.843-1.198 11.254 1.112 0.427 0.643 0.984 2.097-0.341 4.279-3.124 5.050-16.56 13.564-34.875 11.425zM728.104 369.709c8.987-4.449 18.913-2.697 22.167 3.852 3.252 6.631-1.454 15.576-10.483 19.983-8.987 4.449-18.913 2.697-22.167-3.852-3.252-6.631 1.454-15.576 10.483-19.983zM786.088 420.459c-7.317 0.128-13.436-7.917-13.564-18.017-0.171-10.057 5.604-18.315 12.924-18.443s13.436 7.917 13.607 17.974c0.128 10.057-5.65 18.315-12.967 18.486zM293.809 238.894c-1.798 2.267-4.794 1.585-7.704 0.899-2.046-0.572-4.4-0.913-6.831-0.942h-0.017c-0.097-0.002-0.212-0.004-0.327-0.004-5.014 0-9.446 2.484-12.136 6.29l-0.031 0.046c-3.337 5.135-3.124 12.793 0.515 21.567l1.713 3.937c5.906 13.18 15.746 35.302 4.708 56.357-8.301 15.832-21.866 25.76-38.17 27.814-1.87 0.252-4.030 0.396-6.224 0.396-14.135 0-26.871-5.986-35.814-15.559l-0.026-0.028c-16.219-17.886-18.742-42.278-15.576-50.923 1.155-3.124 2.953-4.023 4.236-4.193 2.782-0.384 6.848 1.627 9.414 8.557l0.728 2.225c1.112 3.639 3.252 10.398 6.72 15.832 5.334 8.094 14.383 13.362 24.662 13.362 5.997 0 11.574-1.794 16.228-4.873l-0.109 0.068c11.382-7.488 15.746-21.396 10.913-34.705-2.523-6.89-6.589-20.028-5.693-30.81 1.841-21.908 15.277-30.682 27.302-31.666 11.724-0.427 19.94 6.205 21.994 11.041 1.283 2.825 0.213 4.577-0.427 5.348zM970.99 278.947c-0.427 1.585-3.337 12.239-7.36 25.075l-8.131 21.823c16.048 24.092 16.304 45.617 14.207 57.768-2.31 15.106-8.557 27.985-21.226 41.251-12.623 13.351-38.514 26.958-74.886 37.143l-19.044 5.306c-0.085 0.771-0.984 45.060-1.841 64.059-0.558 13.692-1.755 35.174-8.387 56.272-7.917 28.628-21.695 53.617-38.941 69.623 47.498 49.296 77.153 103.642 77.068 150.243-0.128 89.649-110.017 116.822-245.454 60.593l-28.671-12.196c-13.398 13.197-30.541 30.027-47.705 46.838l-4.93 4.813c-154.48 134.967-637.214-402.586-482.907-533.188l33.763-28.585c-6.626-17.249-10.465-37.203-10.465-58.056 0-6.577 0.381-13.069 1.125-19.447l-0.073 0.777c3.639-35.945 22.125-70.351 52.121-96.968 28.457-25.248 65.899-41.293 102.231-41.251 60.038-138.645 197.27-223.715 358.168-228.509 172.622-5.135 317.516 75.998 378.28 221.748 3.98 10.27 20.796 56.357 20.796 97.010 0 40.909-23.065 57.853-37.743 57.853zM264.796 169.828c-4.194-0.752-9.024-1.18-13.953-1.18-0.723 0-1.44 0.009-2.158 0.027l0.106-0.002c-52.121 1.411-108.435 48.397-114.040 104.199-6.205 61.62 25.248 109.033 80.877 120.244 5.584 1.166 12.005 1.835 18.578 1.835 1.699 0 3.385-0.044 5.063-0.132l-0.234 0.010c31.194-1.713 77.153-25.675 87.637-93.757 9.286-60.252-5.476-121.658-61.876-131.243zM206.6 430.002c-34.662-6.72-65.216-26.403-83.873-53.575-11.169 9.328-31.965 27.388-35.646 34.406-29.826 56.698 32.523 166.974 76.083 229.236 107.707 153.879 276.221 270.36 354.317 249.22 12.665-3.596 54.687-52.377 54.687-52.377s-78.009-43.347-150.372-103.812c-97.48-75.184-171.125-184.476-215.201-303.095zM753.779 192.849c1.074 0.495 1.807 1.567 1.807 2.806 0 0.082-0.003 0.163-0.009 0.243l0.001-0.011c-0.148 1.456-1.368 2.586-2.854 2.586-0.11 0-0.219-0.006-0.326-0.018l0.013 0.001c0 0-81.648-12.111-158.801 16.219 8.387 27.345 30.725 17.459 64.53 14.719 8.335-0.528 18.077-0.827 27.886-0.827 45.53 0 89.554 6.458 131.203 18.51l-3.326-0.825c34.918 10.057 80.792 29.868 116.481 58.027 11.983-26.446 16.261-55.543 16.261-55.543s9.286 1.67 17.075-3.124c7.317-4.535 12.708-13.951 9.030-38.298-7.488-45.487-26.787-82.416-59.225-116.394-19.923-21.543-43.482-39.374-69.762-52.593l-1.4-0.64c-13.017-7.049-28.365-13.708-44.31-19.068l-2.118-0.619c-122.298-40.010-247.508 3.98-287.862 98.421-2.908 6.174-5.679 13.592-7.867 21.257l-0.263 1.081c-17.16 62.263-2.569 136.934 43.091 183.962 2.782 2.996 5.65 6.546 5.65 10.956 0 3.724-2.353 7.616-4.364 10.398-15.963 23.194-71.292 62.732-60.166 139.245 7.96 54.989 55.973 93.67 100.689 91.36l11.34-0.643c19.385-1.155 36.286-3.639 52.292-4.321 26.702-1.155 50.708 2.74 79.164 26.489 9.584 8.003 17.288 14.978 30.298 17.16 1.368 0.213 4.751 1.454 11.553 1.112 7.296-0.286 14.005-2.58 19.653-6.335l-0.14 0.088c22.807-15.192 26.016-51.993 27.217-78.951 0.686-15.405 2.523-52.548 3.166-63.247 1.454-24.392 7.832-27.814 20.796-32.093 7.274-2.438 14.079-4.236 24.048-7.018 30.167-8.515 48.056-17.118 59.353-28.2 6.762-6.89 9.843-14.25 10.828-21.268 3.596-26.016-20.113-58.155-82.931-87.338-68.681-31.922-151.911-40.010-209.466-33.592l-20.156 2.267c-46.044 6.205-72.276-53.361-44.676-94.185 17.8-26.318 66.328-43.433 114.811-43.433 111.259 0 196.757 47.541 228.552 88.665l2.569 3.639c1.542 2.353 0.256 3.639-1.713 2.31-25.974-17.8-141.385-88.535-264.882-67.227 0 0-14.978 2.438-28.671 7.789-10.87 4.236-33.635 14.719-36.373 38.127 99.619-30.853 162.31-1.67 162.31-1.627zM595.963 211.507l0.043-0.043zM405.367 640.71c38.298 44.332 85.412 82.846 127.605 104.455 1.454 0.728 2.996-0.856 2.225-2.267-3.38-6.077-9.843-19.129-11.855-28.969-0.025-0.11-0.039-0.235-0.039-0.364 0-0.946 0.767-1.713 1.713-1.713 0.348 0 0.675 0.104 0.945 0.283l-0.006-0.004c26.275 17.929 71.933 37.143 112.028 39.584 1.713 0.128 2.569-2.097 1.155-3.166-6.589-5.092-12.537-11.041-17.587-17.672-0.213-0.282-0.342-0.641-0.342-1.028 0-0.931 0.743-1.689 1.668-1.712h0.002c28.113-0.213 67.782-10.057 93.628-24.605 1.713-0.984 0.515-4.364-1.454-3.937-39.111 8.987-103.13 15.832-169.627-0.427-59.353-14.506-104.669-36.887-137.703-60.978-1.713-1.24-3.681 0.984-2.353 2.523z" />
<glyph unicode="&#xe918;" glyph-name="mail" d="M856.507 564.727v86.252l-343.004-214.628-343.004 214.628v-86.252l343.004-212.622zM856.507 737.233q34.099 0 59.174-26.075t25.072-60.177v-513.502q0-34.099-25.072-60.177t-59.174-26.075h-686.008q-34.099 0-59.174 26.075t-25.072 60.177v513.502q0 34.099 25.072 60.177t59.174 26.075h686.008z" />
<glyph unicode="&#xe919;" glyph-name="file-submission" d="M343.004 265.853l170.499 170.499 170.499-170.499-60.177-62.183-68.2 68.2v-176.516h-84.246v176.516l-68.2-66.195zM770.254 51.225v471.379h-214.628v214.628h-298.875v-686.008h513.502zM599.756 821.48l256.751-256.751v-513.502q0-34.099-26.075-59.174t-60.177-25.072h-513.502q-34.099 0-60.177 25.072t-26.075 59.174l2.006 686.008q0 34.099 25.072 59.174t59.174 25.072h343.004z" />
<glyph unicode="&#xe91a;" glyph-name="submission-message" d="M555.627 522.604h236.693l-236.693 234.687v-234.687zM256.751 821.48h343.004l256.751-256.751v-513.502q0-34.099-26.075-59.174t-60.177-25.072h-513.502q-34.099 0-60.177 25.072t-26.075 59.174l2.006 686.008q0 34.099 25.072 59.174t59.174 25.072z" />
<glyph unicode="&#xe91b;" glyph-name="settings" d="M738.16 394.228q0 20.060-2.006 30.087l64.189 48.141q10.030 8.024 2.006 20.060l-60.177 104.306q-6.018 10.030-18.054 6.018l-74.216-30.087q-26.075 20.060-50.147 30.087l-12.036 78.228q-4.012 12.036-14.042 12.036h-120.352q-12.036 0-14.042-12.036l-12.036-80.234q-32.093-14.042-50.147-28.081l-74.216 30.087q-10.030 4.012-18.054-8.024l-60.177-102.3q-2.006-2.006-2.006-8.024 0-10.030 4.012-12.036l64.189-48.141q-2.006-10.030-2.006-30.087t2.006-30.087l-64.189-48.141q-4.012-2.006-4.012-12.036 0-6.018 2.006-8.024l60.177-104.306q6.018-10.030 18.054-6.018l74.216 30.087q26.075-20.060 50.147-30.087l12.036-78.228q4.012-12.036 14.042-12.036h120.352q12.036 0 14.042 12.036l12.036 80.234q32.093 14.042 50.147 28.081l74.216-30.087q10.030-4.012 18.054 8.024l60.177 102.3q8.024 12.036-2.006 20.060l-64.189 48.141q2.006 10.030 2.006 30.087zM812.378 779.357q36.105 0 61.18-25.072t25.072-61.18v-597.75q0-36.105-25.072-61.18t-61.18-25.072h-597.75q-36.105 0-61.18 25.072t-25.072 61.18v597.75q0 36.105 25.072 61.18t61.18 25.072h597.75zM513.502 480.481q34.099 0 60.177-26.075t26.075-60.177-26.075-60.177-60.177-26.075-60.177 26.075-26.075 60.177 26.075 60.177 60.177 26.075z" />
<glyph unicode="&#xe91c;" glyph-name="cross" d="M728.131 239.777l-154.453 154.453 154.453 154.453-60.177 60.177-154.453-154.453-154.453 154.453-60.177-60.177 154.453-154.453-154.453-154.453 60.177-60.177 154.453 154.453 154.453-154.453zM513.502 821.48q176.516 0 301.884-125.366t125.366-301.884-125.366-301.884-301.884-125.366-301.884 125.366-125.366 301.884 125.366 301.884 301.884 125.366z" />
<glyph unicode="&#xe91d;" glyph-name="icon-yes" d="M427.25 179.6l385.127 385.127-60.177 62.183-324.951-324.951-152.447 152.447-60.177-60.177zM513.502 821.48q176.516 0 301.884-125.366t125.366-301.884-125.366-301.884-301.884-125.366-301.884 125.366-125.366 301.884 125.366 301.884 301.884 125.366z" />
<glyph unicode="&#xe91e;" glyph-name="calendar" d="M941.765 689.322v-654.203c0-51.35-43.134-90.376-90.376-90.376h-675.77c-47.242 4.108-90.376 43.134-90.376 94.484v650.095c0 51.35 43.134 90.376 90.376 90.376h89.349v98.592c5.135 12.324 13.351 20.54 25.675 20.54h77.025c13.351 0 21.567-8.216 21.567-20.54v-98.592h244.427v98.592c0 12.324 8.216 20.54 21.567 20.54h77.025c12.324 0 20.54-8.216 20.54-20.54v-98.592h90.376c55.458 0 98.592-39.026 98.592-90.376zM851.388 47.443v556.638h-675.77v-552.53c0-4.108 4.108-12.324 12.324-12.324h651.122c4.108 0 12.324 4.108 12.324 8.216zM367.668 424.354h-77.025c-12.324 0-20.54 8.216-20.54 21.567v77.025c0 12.324 8.216 21.567 20.54 21.567h77.025c13.351 0 21.567-9.243 21.567-21.567v-72.917c0-13.351-8.216-25.675-21.567-25.675zM573.070 445.921c0-13.351-8.216-21.567-20.54-21.567h-77.025c-13.351 0-21.567 8.216-21.567 21.567v77.025c0 12.324 8.216 21.567 21.567 21.567h77.025c12.324 0 20.54-9.243 20.54-21.567v-77.025zM757.93 445.921c0-13.351-9.243-21.567-21.567-21.567h-77.025c-13.351 0-21.567 8.216-21.567 21.567v77.025c0 12.324 8.216 21.567 21.567 21.567h77.025c12.324 0 21.567-9.243 21.567-21.567v-77.025zM573.070 282.628c0-12.324-8.216-20.54-20.54-20.54h-77.025c-13.351 0-21.567 8.216-21.567 20.54v72.917c0 13.351 8.216 21.567 21.567 21.567h77.025c12.324 0 20.54-8.216 20.54-21.567v-72.917zM389.235 282.628c0-12.324-8.216-20.54-21.567-20.54h-77.025c-12.324 0-20.54 8.216-20.54 20.54v72.917c0 13.351 8.216 21.567 20.54 21.567h77.025c13.351 0 21.567-8.216 21.567-21.567v-72.917zM757.93 282.628c0-12.324-9.243-20.54-21.567-20.54h-77.025c-13.351 0-21.567 8.216-21.567 20.54v72.917c0 13.351 8.216 21.567 21.567 21.567h77.025c12.324 0 21.567-8.216 21.567-21.567v-72.917zM573.070 120.36c0-12.324-8.216-21.567-20.54-21.567h-77.025c-13.351 0-21.567 9.243-21.567 21.567v72.917c0 12.324 8.216 21.567 21.567 21.567h77.025c12.324 0 20.54-9.243 20.54-21.567v-72.917zM389.235 120.36c0-12.324-8.216-21.567-21.567-21.567h-77.025c-12.324 0-20.54 9.243-20.54 21.567v72.917c0 12.324 8.216 21.567 20.54 21.567h77.025c13.351 0 21.567-9.243 21.567-21.567v-72.917zM757.93 120.36c0-12.324-9.243-21.567-21.567-21.567h-77.025c-13.351 0-21.567 9.243-21.567 21.567v72.917c0 12.324 8.216 21.567 21.567 21.567h77.025c12.324 0 21.567-9.243 21.567-21.567v-72.917z" />
<glyph unicode="&#xe91f;" glyph-name="menu" d="M128.375 650.98h770.254v-86.252h-770.254v86.252zM128.375 352.105v84.246h770.254v-84.246h-770.254zM128.375 137.477v86.252h770.254v-86.252h-770.254z" />
<glyph unicode="&#xe920;" glyph-name="send" d="M86.252 9.101v298.875l641.879 86.252-641.879 86.252v298.875l898.631-385.127z" />
<glyph unicode="&#xe921;" glyph-name="link" d="M728.131 608.856q88.258 0 150.441-63.186t62.183-151.444-62.183-151.444-150.441-63.186h-172.504v82.24h172.504q54.159 0 93.273 39.114t39.114 93.273-39.114 93.273-93.273 39.114h-172.504v82.24h172.504zM343.004 352.105v84.246h340.998v-84.246h-340.998zM166.487 394.228q0-54.159 39.114-93.273t93.273-39.114h172.504v-82.24h-172.504q-88.258 0-150.441 63.186t-62.183 151.444 62.183 151.444 150.441 63.186h172.504v-82.24h-172.504q-54.159 0-93.273-39.114t-39.114-93.273z" />
<glyph unicode="&#xe922;" glyph-name="resize" d="M769.516-0.473v62.005h127.991v127.991h66.016v-189.996h-194.007zM897.507 737.623h-127.991v62.005h194.007v-189.996h-66.016v127.991zM97.405 609.632h-65.984v189.996h194.007v-62.005h-128.023v-127.991zM159.411 671.638h676.091v-544.088h-676.091v544.088zM225.396 189.523h544.088v420.109h-544.088v-420.109zM289.423 543.615h418.087v-288.107h-418.087v288.107zM97.405 61.532h127.991v-62.005h-193.975v189.996h66.016v-127.991z" />
<glyph unicode="&#xe923;" glyph-name="crop-free" d="M812.378 779.357q34.099 0 60.177-26.075t26.075-60.177v-170.499h-86.252v170.499h-170.499v86.252h170.499zM812.378 95.354v170.499h86.252v-170.499q0-34.099-26.075-60.177t-60.177-26.075h-170.499v86.252h170.499zM214.628 265.853v-170.499h170.499v-86.252h-170.499q-34.099 0-60.177 26.075t-26.075 60.177v170.499h86.252zM128.375 693.103q0 34.099 26.075 60.177t60.177 26.075h170.499v-86.252h-170.499v-170.499h-86.252v170.499z" />
<glyph unicode="&#xe924;" glyph-name="text-fields" d="M920.694 522.604v-128.375h-128.375v-298.875h-128.375v298.875h-128.375v128.375h385.127zM106.312 737.233h557.632v-128.375h-214.628v-513.502h-128.375v513.502h-214.628v128.375z" />
<glyph unicode="&#xe925;" glyph-name="support" d="M513.502 821.48q-88.258 0-165.484-33.096t-136.399-92.27-92.27-136.399-33.096-165.484 33.096-165.484 92.27-136.399 136.399-92.27 165.484-33.096 165.484 33.096 136.399 92.27 92.27 136.399 33.096 165.484-33.096 165.484-92.27 136.399-136.399 92.27-165.484 33.096zM832.436 516.587l-118.346-48.141q-16.048 44.129-49.144 77.225t-77.225 49.144l48.141 118.346q68.2-26.075 119.349-77.225t77.225-119.349zM513.502 265.853q-36.105 0-65.192 17.051t-46.135 46.135-17.051 65.192 17.051 65.192 46.135 46.135 65.192 17.051 65.192-17.051 46.135-46.135 17.051-65.192-17.051-65.192-46.135-46.135-65.192-17.051zM391.145 713.162l50.147-118.346q-44.129-16.048-78.228-49.144t-50.147-79.231l-118.346 50.147q26.075 68.2 77.225 119.349t119.349 77.225zM194.57 271.871l118.346 48.141q16.048-44.129 49.144-77.225t79.231-49.144l-50.147-118.346q-68.2 26.075-119.349 77.225t-77.225 119.349zM635.861 75.295l-48.141 118.346q44.129 16.048 77.225 49.144t49.144 79.231l118.346-50.147q-26.075-68.2-77.225-119.349t-119.349-77.225z" />
<glyph unicode="&#xe926;" glyph-name="create" d="M886.595 606.851l-78.228-78.228-160.47 160.47 78.228 78.228q12.036 12.036 30.087 12.036t30.087-12.036l100.294-100.294q12.036-12.036 12.036-30.087t-12.036-30.087zM128.375 169.571l473.385 473.385 160.47-160.47-473.385-473.385h-160.47v160.47z" />
<glyph unicode="&#xe927;" glyph-name="arrow-right" d="M830.436 479.812l-311.747 311.747 72.61 72.61 435.707-435.707-435.707-435.707-72.61 72.61 311.747 311.747h-830.436v102.7z" />
<glyph unicode="&#xe928;" glyph-name="button-appearance" d="M542.388-85.042c-19.257 0-41.723 0-60.978 0-3.209 0-6.418 0-9.627 3.209-19.257 3.209-38.514 3.209-54.559 6.418-112.329 22.466-208.611 73.816-285.636 160.47-67.398 73.816-109.119 160.47-125.166 256.751-3.209 19.257-6.418 38.514-6.418 57.768s0 41.723 0 60.978c0 3.209 0 6.418 3.209 9.627 3.209 19.257 3.209 38.514 6.418 57.768 22.466 112.329 73.816 205.401 160.47 282.427 73.816 67.398 160.47 109.119 256.751 125.166 19.257 3.209 38.514 6.418 57.768 6.418s41.723 0 60.978 0c3.209 0 6.418 0 9.627-3.209 19.257-3.209 38.514-3.209 54.559-6.418 112.329-22.466 208.611-73.816 285.636-160.47 67.398-73.816 109.119-160.47 125.166-256.751 3.209-19.257 6.418-38.514 6.418-57.768s0-41.723 0-60.978c0-3.209 0-6.418-3.209-9.627-3.209-19.257-3.209-38.514-6.418-57.768-22.466-112.329-73.816-205.401-160.47-282.427-73.816-67.398-160.47-109.119-256.751-125.166-19.257-3.209-38.514-3.209-57.768-6.418zM362.661 428.462c0-60.978 0-121.957 0-182.935 0-32.093 28.884-48.141 57.768-32.093 12.839 6.418 25.675 16.048 38.514 22.466 93.073 51.35 182.935 105.909 276.008 160.47 6.418 3.209 16.048 12.839 19.257 19.257 9.627 19.257 3.209 35.302-19.257 48.141-57.768 35.302-118.748 67.398-176.516 102.7-44.932 25.675-89.864 51.35-138.005 77.025-6.418 3.209-19.257 6.418-25.675 6.418-19.257 0-32.093-16.048-32.093-38.514 0-60.978 0-121.957 0-182.935z" />
<glyph unicode="&#xe929;" glyph-name="enquiry-form-tab" d="M648.297 383.53c-83.443 0-147.632-67.398-147.632-147.632 0-83.443 64.189-147.632 147.632-150.841 80.234 0 147.632 67.398 150.841 147.632-3.209 83.443-67.398 150.841-150.841 150.841zM953.19 428.462c0 144.423 0 288.846 0 433.268 0 48.141-28.884 80.234-77.025 80.234-192.564 0-388.336 0-580.9 0-25.675 0-48.141-9.627-64.189-25.675-44.932-44.932-86.654-89.864-131.585-131.585-19.257-19.257-25.675-38.514-25.675-60.978 0-243.914 0-484.618 0-728.532 0-48.141 32.093-80.234 80.234-80.234 240.705 0 481.409 0 722.114 0 9.627 0 16.048 0 25.675 3.209 32.093 9.627 54.559 38.514 54.559 73.816-3.209 144.423-3.209 288.846-3.209 436.477zM266.38 710.889h295.264c19.257 0 35.302-16.048 35.302-35.302s-16.048-35.302-35.302-35.302h-295.264c-19.257 0-35.302 16.048-35.302 35.302s16.048 35.302 35.302 35.302zM231.076 544c0 19.257 16.048 35.302 35.302 35.302h192.564c19.257 0 35.302-16.048 35.302-35.302s-16.048-35.302-35.302-35.302h-192.564c-19.257-3.209-35.302 12.839-35.302 35.302zM901.84 14.45c-3.209-16.048-9.627-25.675-22.466-28.884-12.839-6.418-25.675-3.209-38.514 6.418-19.257 16.048-35.302 35.302-54.559 54.559-3.209 3.209-6.418 6.418-9.627 12.839-109.119-73.816-237.495-41.723-304.892 41.723-67.398 86.654-60.978 211.82 16.048 292.055s202.191 89.864 292.055 22.466c86.654-64.189 125.166-195.773 48.141-308.102 19.257-19.257 41.723-41.723 60.978-60.978 9.627-9.627 16.048-19.257 12.839-32.093z" />
<glyph unicode="&#xe92a;" glyph-name="exclusion-tab" d="M635.46 560.047c-64.189 60.978-157.26 57.768-211.82 22.466 80.234-80.234 163.68-163.68 243.914-243.914 44.932 67.398 28.884 163.68-32.093 221.448zM385.127 303.296c57.768-57.768 150.841-70.607 218.239-28.884-80.234 80.234-163.68 163.68-243.914 243.914-41.723-64.189-32.093-157.26 25.675-215.030zM882.583 858.521h-738.16c-80.234 0-144.423-64.189-144.423-144.423v-571.272c0-80.234 64.189-144.423 144.423-144.423h734.951c80.234 0 144.423 64.189 144.423 144.423v571.272c3.209 80.234-60.978 144.423-141.214 144.423zM513.502 165.292c-144.423 0-259.961 118.748-263.171 263.171 0 144.423 118.748 263.171 263.171 263.171s263.171-118.748 263.171-263.171c0-144.423-118.748-263.171-263.171-263.171z" />
<glyph unicode="&#xe92b;" glyph-name="general-tab" d="M513.502 428.462c-57.768 0-102.7-44.932-102.7-102.7s44.932-102.7 102.7-102.7c57.768 0 102.7 44.932 102.7 102.7s-44.932 102.7-102.7 102.7zM969.238 672.375c-109.119 77.025-221.448 154.050-333.777 227.867-80.234 54.559-166.889 54.559-247.123 0-112.329-73.816-221.448-150.841-330.568-227.867-70.607-48.141-77.025-141.214-19.257-202.191 32.093-32.093 44.932-67.398 44.932-112.329 0-77.025 0-157.26 0-234.286 0-32.093 6.418-60.978 19.257-89.864 41.723-80.234 109.119-118.748 195.773-118.748 70.607 0 141.214 0 211.82 0 0 0 0 0 0 0 73.816 0 147.632 0 224.657 0 112.329 3.209 208.611 93.073 205.401 211.82-3.209 77.025 0 154.050 0 231.076 0 44.932 12.839 80.234 44.932 112.329 60.978 57.768 51.35 154.050-16.048 202.191zM750.998 242.317c-3.209-32.093-16.048-57.768-41.723-77.025-32.093-19.257-64.189-38.514-96.282-57.768-19.257-9.627-38.514-19.257-57.768-28.884-28.884-12.839-54.559-12.839-83.443 0-54.559 25.675-105.909 54.559-154.050 89.864-25.675 19.257-38.514 44.932-41.723 77.025 0 25.675-3.209 54.559-3.209 86.654 0 25.675 3.209 54.559 3.209 86.654 3.209 28.884 16.048 51.35 38.514 67.398s44.932 28.884 67.398 41.723c25.675 16.048 51.35 28.884 77.025 41.723 32.093 19.257 67.398 19.257 102.7 0 32.093-19.257 67.398-35.302 99.491-54.559 16.048-9.627 32.093-19.257 44.932-28.884 25.675-19.257 38.514-44.932 41.723-77.025 6.418-54.559 6.418-112.329 3.209-166.889z" />
<glyph unicode="&#xe92c;" glyph-name="live-preview-tab" d="M1027.006 595.35c0 93.073-99.491 154.050-179.726 105.909-16.048-9.627-28.884-16.048-44.932-25.675-6.418-3.209-9.627-6.418-16.048-9.627-22.466 70.607-83.443 115.539-157.26 115.539-154.050 0-308.102 0-465.362 0-89.864 0-163.68-73.816-163.68-163.68 0-125.166 0-253.542 0-378.708 0-89.864 73.816-163.68 163.68-163.68 154.050 0 311.311 0 465.362 0 70.607 0 118.748 35.302 150.841 96.282 25.675-12.839 51.35-25.675 73.816-35.302 80.234-38.514 170.098 19.257 173.307 105.909 0 115.539 0 234.286 0 353.033zM442.897 547.209c0 22.466 19.257 38.514 41.723 38.514s38.514-19.257 38.514-41.723c0-6.418 0-9.627 0-16.048s0-9.627 0-16.048c0-22.466-19.257-38.514-38.514-38.514-22.466 0-38.514 16.048-41.723 38.514 0 12.839 0 22.466 0 35.302zM269.589 544c0 22.466 19.257 41.723 44.932 41.723 22.466 0 35.302-19.257 35.302-41.723 0-3.209 0-9.627 0-12.839 0 0 0 0 0 0 0-6.418 0-12.839 0-22.466-3.209-19.257-22.466-35.302-44.932-35.302-19.257 0-35.302 19.257-35.302 38.514 0 9.627 0 22.466 0 32.093zM571.272 341.808c-51.35-44.932-109.119-67.398-176.516-67.398-64.189 0-125.166 22.466-173.307 67.398-19.257 16.048-19.257 38.514-6.418 57.768 12.839 16.048 38.514 19.257 57.768 3.209 19.257-19.257 41.723-32.093 67.398-38.514 64.189-19.257 121.957-6.418 173.307 35.302 25.675 22.466 57.768 16.048 70.607-12.839 6.418-16.048 0-32.093-12.839-44.932z" />
<glyph unicode="&#xe92d;" glyph-name="pro-tab" d="M513.502-85.042c-282.427 0-513.502 231.076-513.502 513.502s231.076 513.502 513.502 513.502c282.427 0 513.502-231.076 513.502-513.502s-231.076-513.502-513.502-513.502zM513.502 723.725c-16.048 0-25.675-6.418-32.093-22.466-22.466-44.932-41.723-86.654-64.189-131.585-3.209-6.418-6.418-9.627-16.048-12.839-48.141-6.418-96.282-12.839-144.423-19.257-16.048-3.209-25.675-9.627-32.093-22.466-3.209-16.048 0-25.675 12.839-35.302 35.302-32.093 70.607-67.398 102.7-102.7 3.209-3.209 6.418-9.627 6.418-12.839-6.418-48.141-16.048-99.491-25.675-147.632 0-3.209 0-9.627 0-16.048 6.418-22.466 28.884-32.093 48.141-19.257 44.932 22.466 86.654 44.932 131.585 67.398 6.418 3.209 12.839 3.209 19.257 0 44.932-22.466 86.654-44.932 131.585-67.398 12.839-6.418 25.675-6.418 35.302 3.209s16.048 19.257 12.839 32.093c-9.627 48.141-16.048 96.282-25.675 147.632 0 9.627 0 12.839 6.418 19.257 35.302 32.093 70.607 67.398 105.909 102.7 9.627 9.627 16.048 19.257 12.839 32.093-3.209 16.048-12.839 25.675-35.302 28.884-44.932 6.418-93.073 12.839-138.005 19.257-9.627 0-12.839 3.209-16.048 12.839-22.466 44.932-41.723 86.654-64.189 131.585-6.418 3.209-16.048 9.627-32.093 12.839z" />
<glyph unicode="&#xe92e;" glyph-name="next" d="M224.657 890.614c-3.209-3.209-3.209-6.418-3.209-12.839 0-9.627 6.418-19.257 12.839-28.884 131.585-128.375 401.174-401.174 401.174-401.174l19.257-19.257-19.257-19.257c-3.209-3.209-269.589-266.38-397.965-394.756-3.209-3.209-6.418-6.418-9.627-9.627-3.209-6.418-6.418-12.839-6.418-19.257s3.209-12.839 6.418-16.048l6.418-9.627c16.048-19.257 28.884-35.302 48.141-41.723h12.839c12.839 3.209 22.466 16.048 32.093 25.675 105.909 105.909 211.82 211.82 317.73 317.73l141.214 141.214c3.209 3.209 6.418 6.418 9.627 9.627 3.209 6.418 6.418 12.839 6.418 19.257s-3.209 12.839-6.418 19.257c-3.209 3.209-6.418 6.418-9.627 9.627-157.26 157.26-314.521 314.521-471.781 468.572-3.209 3.209-6.418 6.418-6.418 6.418-9.627 6.418-22.466 12.839-32.093 6.418-19.257-16.048-35.302-35.302-51.35-51.35z" />
<glyph unicode="&#xe92f;" glyph-name="previous" d="M747.789 938.755c-9.627 6.418-22.466 0-32.093-6.418 0 0-3.209-3.209-6.418-6.418-157.26-154.050-314.521-311.311-471.781-468.572-3.209-3.209-6.418-6.418-9.627-9.627-3.209-6.418-6.418-12.839-6.418-19.257s3.209-12.839 6.418-19.257c3.209-3.209 6.418-6.418 9.627-9.627l141.214-141.214c105.909-105.909 211.82-211.82 317.73-317.73 9.627-9.627 19.257-22.466 32.093-25.675h12.839c19.257 6.418 32.093 22.466 48.141 41.723l6.418 9.627c3.209 3.209 6.418 9.627 6.418 16.048s-3.209 12.839-6.418 19.257c-3.209 3.209-6.418 6.418-9.627 9.627-128.375 128.375-394.756 391.546-397.965 394.756l-19.257 19.257 19.257 19.257c0 0 269.589 272.798 401.174 401.174 6.418 9.627 12.839 19.257 12.839 28.884 0 6.418 0 9.627-3.209 12.839-12.839 16.048-28.884 35.302-51.35 51.35z" />
<glyph unicode="&#xe930;" glyph-name="select" d="M966.027 787.914c-6.418 6.418-16.048 6.418-22.466 0l-571.272-568.063-288.846 288.846c-6.418 6.418-16.048 6.418-22.466 0l-54.559-54.559c-6.418-6.418-6.418-16.048 0-22.466l365.871-365.871 648.297 645.088c6.418 6.418 6.418 16.048 0 22.466l-54.559 54.559z" />
<glyph unicode="&#xe931;" glyph-name="success-notification" d="M966.027 787.914c-6.418 6.418-16.048 6.418-22.466 0l-571.272-568.063-288.846 288.846c-6.418 6.418-16.048 6.418-22.466 0l-54.559-54.559c-6.418-6.418-6.418-16.048 0-22.466l365.871-365.871 648.297 645.088c6.418 6.418 6.418 16.048 0 22.466l-54.559 54.559z" />
<glyph unicode="&#xe932;" glyph-name="drop-down" d="M1027.006 643.491c-3.209-19.257-16.048-32.093-32.093-48.141-144.423-144.423-288.846-288.846-433.268-433.268-19.257-19.257-41.723-28.884-70.607-19.257-9.627 3.209-19.257 9.627-25.675 16.048-147.632 147.632-295.264 295.264-446.106 442.897-9.627 12.839-16.048 25.675-19.257 41.723 0 6.418 0 12.839 0 19.257 0 0 0 3.209 0 3.209 12.839 35.302 35.302 51.35 70.607 51.35s70.607 0 105.909 0c259.961 0 519.922 0 779.883 0 12.839 0 25.675-3.209 38.514-9.627 19.257-9.627 25.675-25.675 32.093-44.932 0-6.418 0-12.839 0-19.257z" />
<glyph unicode="&#xe933;" glyph-name="vendor-form-delete" d="M978.865 765.448c-9.627 16.048-28.884 25.675-48.141 25.675-51.35 0-102.7 0-154.050 0h-60.978v51.35c0 60.978-38.514 99.491-99.491 99.491h-218.239c-60.978 0-99.491-38.514-99.491-99.491v-54.559h-57.768c-51.35 0-102.7 0-154.050 0-9.627 0-22.466-6.418-32.093-16.048s-16.048-22.466-16.048-38.514c0-28.884 22.466-51.35 54.559-54.559 9.627 0 16.048 0 25.675 0h32.093v-173.307c0-154.050 0-304.892 0-458.943 0-77.025 57.768-134.795 134.795-134.795 60.978 0 118.748 0 179.726 0 93.073 0 182.935 0 276.008 0 12.839 0 25.675 3.209 38.514 3.209 57.768 16.048 96.282 67.398 96.282 128.375v632.25h60.978c22.466 0 41.723 12.839 51.35 32.093 3.209 22.466 0 41.723-9.627 57.768zM414.012 787.914v44.932h195.773v-44.932h-195.773zM767.045 682.005v-629.041c0-22.466-6.418-28.884-28.884-28.884h-449.315c-19.257 0-25.675 9.627-25.675 25.675v632.25h503.875zM436.477 146.035c32.093 0 54.559 25.675 54.559 57.768v295.264c0 32.093-22.466 57.768-54.559 57.768-16.048 0-28.884-6.418-38.514-16.048s-16.048-25.675-16.048-41.723c0-99.491 0-198.982 0-298.473 0-32.093 22.466-54.559 54.559-54.559zM590.529 146.035c0 0 0 0 0 0 32.093 0 54.559 25.675 54.559 57.768v295.264c0 35.302-22.466 57.768-54.559 57.768 0 0 0 0 0 0-12.839 0-28.884-6.418-38.514-16.048s-16.048-25.675-16.048-41.723c0-99.491 0-198.982 0-298.473 0-16.048 6.418-32.093 16.048-41.723s22.466-12.839 38.514-12.839z" />
<glyph unicode="&#xe934;" glyph-name="vendor-form-copy" d="M625.832 14.45c-12.839 6.418-25.675 9.627-35.302 9.627h-369.080c-22.466 0-32.093 6.418-32.093 32.093v446.106c0 6.418 0 9.627 0 16.048-6.418 25.675-28.884 44.932-57.768 41.723s-48.141-25.675-48.141-51.35c0-19.257 0-41.723 0-60.978v-391.546c0-80.234 57.768-134.795 138.005-134.795 54.559 0 112.329 0 166.889 0 67.398 0 138.005 0 205.401 0 25.675 0 48.141 16.048 54.559 38.514 6.418 16.048 0 41.723-22.466 54.559zM959.608 807.171v0c0 60.978-38.514 112.329-96.282 128.375-12.839 6.418-25.675 6.418-38.514 6.418h-170.098c-93.073 0-186.145 0-282.427 0-77.025 0-134.795-57.768-134.795-134.795 0-70.607 0-141.214 0-211.82v-388.336c0-83.443 54.559-138.005 138.005-138.005h446.106c83.443 0 138.005 54.559 138.005 138.005 0 198.982 0 401.174 0 600.157zM850.49 803.962v-596.947c0-22.466-6.418-28.884-28.884-28.884h-446.106c-22.466 0-28.884 6.418-28.884 28.884v596.947c0 25.675 6.418 32.093 32.093 32.093h442.897c22.466-3.209 28.884-9.627 28.884-32.093z" />
<glyph unicode="&#xe935;" glyph-name="vendor-form-add" d="M513.502 941.964c0 0 0 0 0 0-282.427 0-510.293-227.867-513.502-507.084-3.209-282.427 224.657-516.713 507.084-519.922 3.209 0 3.209 0 6.418 0 138.005 0 263.171 51.35 362.661 147.632s150.841 224.657 154.050 362.661v0c-3.209 282.427-231.076 516.713-516.713 516.713zM513.502 17.66c0 0 0 0 0 0-227.867 0-410.802 186.145-410.802 410.802 0 227.867 186.145 410.802 410.802 410.802 0 0 0 0 0 0 224.657 0 410.802-182.935 410.802-410.802 0-109.119-41.723-215.030-121.957-292.055-77.025-77.025-179.726-118.748-288.846-118.748zM725.323 479.812c-19.257 0-41.723 0-60.978 0h-99.491v157.26c0 6.418 0 9.627 0 16.048-6.418 25.675-28.884 41.723-54.559 38.514s-44.932-25.675-44.932-51.35c0-38.514 0-80.234 0-118.748v-41.723h-157.26c-3.209 0-9.627 0-16.048 0-25.675-6.418-41.723-28.884-38.514-54.559s25.675-44.932 51.35-44.932c38.514 0 80.234 0 118.748 0h41.723v-157.26c0-6.418 0-9.627 0-16.048 6.418-22.466 25.675-38.514 48.141-38.514 3.209 0 3.209 0 6.418 0 25.675 3.209 44.932 25.675 44.932 51.35 0 38.514 0 77.025 0 118.748v44.932h44.932c38.514 0 80.234 0 118.748 0 28.884 0 51.35 22.466 51.35 51.35-3.209 22.466-25.675 44.932-54.559 44.932z" />
<glyph unicode="&#xe936;" glyph-name="select-question-type" d="M462.152 139.616c-51.35 0-99.491 6.418-147.632 25.675-160.47 64.189-253.542 247.123-205.401 417.221 48.141 173.307 205.401 279.217 385.127 259.961 93.073-9.627 170.098-54.559 231.076-128.375 54.559-67.398 80.234-144.423 77.025-234.286 0-16.048 6.418-32.093 16.048-41.723 16.048-12.839 32.093-12.839 51.35-6.418 19.257 9.627 28.884 22.466 28.884 44.932 3.209 77.025-12.839 144.423-41.723 208.611-67.398 134.795-176.516 218.239-320.939 247.123-12.839 3.209-25.675 3.209-35.302 6.418l-22.466 3.209h-60.978l-16.048-3.209c-12.839 0-22.466-3.209-35.302-6.418-105.909-19.257-195.773-70.607-263.171-154.050-54.559-67.398-89.864-147.632-99.491-237.495l-3.209-19.257v-57.768l3.209-19.257c3.209-12.839 3.209-25.675 6.418-41.723 41.723-208.611 224.657-356.243 439.687-356.243 3.209 0 9.627 0 12.839 0 28.884 0 51.35 22.466 51.35 48.141 0 12.839-6.418 25.675-16.048 35.302-9.627 6.418-22.466 9.627-35.302 9.627zM1027.006 293.667c-6.418 25.675-22.466 44.932-48.141 54.559l-157.26 57.768c-105.909 38.514-208.611 80.234-314.521 118.748-12.839 6.418-28.884 6.418-44.932 3.209-19.257-3.209-35.302-16.048-44.932-35.302s-9.627-41.723-3.209-60.978l51.35-131.585c41.723-109.119 83.443-218.239 125.166-327.358 6.418-19.257 22.466-48.141 57.768-57.768h28.884c38.514 9.627 51.35 41.723 57.768 60.978 12.839 38.514 25.675 77.025 35.302 112.329 6.418 19.257 12.839 38.514 19.257 60.978 22.466 6.418 41.723 12.839 64.189 22.466 35.302 12.839 73.816 22.466 109.119 35.302 22.466 6.418 51.35 19.257 60.978 57.768v22.466l3.209 6.418zM879.374 280.83l-60.978-19.257c-25.675-9.627-51.35-16.048-77.025-25.675-19.257-6.418-28.884-19.257-35.302-35.302-12.839-41.723-28.884-83.443-41.723-125.166l-3.209-9.627-134.795 353.033 353.033-138.005z" />
<glyph unicode="&#xe937;" glyph-name="form-url" d="M513.502 941.964c0 0 0 0 0 0-3.209 0-3.209 0 0 0-3.209 0-3.209 0-6.418 0-279.217-3.209-507.084-231.076-507.084-513.502s227.867-510.293 507.084-513.502c0 0 0 0 3.209 0 0 0 0 0 0 0s0 0 3.209 0c282.427 0 513.502 231.076 513.502 513.502s-231.076 513.502-513.502 513.502zM937.142 473.393h-202.191c-3.209 134.795-32.093 266.38-77.025 356.243 147.632-54.559 259.961-192.564 279.217-356.243zM510.293 4.822c0 0 0 0 0 0-54.559 3.209-125.166 147.632-134.795 378.708h266.38c-6.418-231.076-80.234-378.708-131.585-378.708zM378.708 473.393c9.627 231.076 80.234 378.708 131.585 378.708 0 0 0 0 3.209 0 51.35 0 125.166-147.632 131.585-378.708h-266.38zM362.661 826.428c-44.932-89.864-70.607-218.239-77.025-353.033h-195.773c19.257 160.47 128.375 295.264 272.798 353.033zM89.864 383.53h195.773c3.209-134.795 28.884-263.171 77.025-353.033-144.423 57.768-253.542 192.564-272.798 353.033zM654.716 30.497c44.932 89.864 73.816 221.448 77.025 356.243h202.191c-16.048-166.889-128.375-304.892-279.217-356.243z" />
<glyph unicode="&#xe938;" glyph-name="form-textbox" d="M818.395 14.45c-57.768 0-102.7 48.141-102.7 105.909 0 189.355 0 381.918 0 571.272v44.932c0 22.466 6.418 41.723 19.257 60.978 22.466 28.884 51.35 44.932 86.654 44.932 25.675 0 44.932 19.257 48.141 41.723s-9.627 44.932-32.093 54.559c3.209 0-3.209 3.209-3.209 3.209-6.418 3.209-19.257 3.209-32.093 0-3.209 0-6.418 0-6.418 0-6.418 0-12.839-3.209-16.048-3.209-41.723-9.627-80.234-32.093-109.119-64.189h-3.209c-9.627 3.209-16.048 9.627-25.675 16.048-32.093 25.675-67.398 41.723-109.119 48.141 0 0-25.675 3.209-38.514 0-28.884-6.418-41.723-32.093-35.302-54.559 3.209-25.675 25.675-41.723 54.559-41.723 57.768 0 102.7-48.141 102.7-105.909 0-192.564 0-385.127 0-580.9v-35.302c0-22.466-6.418-41.723-19.257-60.978-22.466-28.884-51.35-44.932-86.654-44.932-25.675 0-44.932-16.048-48.141-41.723-3.209-22.466 9.627-44.932 32.093-54.559 12.839-6.418 38.514-3.209 38.514-3.209 3.209 0 9.627 3.209 12.839 3.209 9.627 3.209 19.257 3.209 28.884 6.418 35.302 12.839 67.398 32.093 89.864 60.978 35.302-38.514 80.234-64.189 131.585-70.607 0 0 28.884-3.209 38.514 0 22.466 6.418 41.723 32.093 35.302 54.559 0 28.884-22.466 44.932-51.35 44.932zM507.084 142.826c3.209 0 3.209 0 6.418 0 25.675 0 44.932 22.466 48.141 44.932 3.209 25.675-12.839 48.141-38.514 51.35-6.418 3.209-12.839 3.209-19.257 3.209h-333.777c-41.723 0-70.607 28.884-70.607 70.607 0 73.816 0 150.841 0 224.657 0 3.209 0 9.627 0 12.839 6.418 35.302 32.093 57.768 67.398 57.768 64.189 0 131.585 0 195.773 0h144.423c28.884 0 51.35 22.466 51.35 51.35 0 12.839-6.418 25.675-16.048 35.302s-22.466 12.839-38.514 12.839h-64.189c-93.073 0-186.145 0-279.217 0-73.816 0-141.214-51.35-160.47-125.166 0-6.418-3.209-9.627-3.209-16.048-3.209-70.607-6.418-211.82 0-282.427 6.418-77.025 83.443-144.423 170.098-144.423l340.196 3.209c0 0 0 0 0 0zM1023.797 569.675c-9.627 67.398-60.978 121.957-125.166 138.005-19.257 3.209-41.723 6.418-60.978 6.418h-12.839c-12.839 0-25.675-3.209-35.302-12.839s-16.048-22.466-16.048-35.302c0-28.884 22.466-48.141 51.35-51.35 6.418 0 12.839 0 19.257 0s12.839 0 19.257 0c35.302 0 64.189-28.884 64.189-64.189 0-80.234 0-157.26 0-237.495 0-32.093-22.466-57.768-54.559-64.189-9.627 0-22.466 0-32.093 0-3.209 0-9.627 0-12.839 0-28.884 0-51.35-22.466-51.35-51.35s22.466-51.35 51.35-51.35c6.418 0 9.627 0 16.048 0s12.839 0 19.257 0c73.816 0 141.214 51.35 160.47 125.166 0 6.418 3.209 9.627 3.209 16.048 3.209 64.189 6.418 218.239-3.209 282.427z" />
</font>
</defs>
</svg>
